<?xml version="1.0" encoding="UTF-8" standalone="no"?> <svg xmlns="http://www.w3.org/2000/svg" xmlns:xlink="http://www.w3.org/1999/xlink" version="1.1"><metadata> Created by FontForge 20170924 at Thu Jan 17 20:33:55 2013 By www-data Copyright (c) 2012 by Hannes von Dhren. All rights reserved. </metadata><defs><font id="BrandonText-Regular"><glyph glyph-name="fi" unicode="fi" d="M119 22v376h-74c-12 0 -22 10 -22 22v20c0 13 10 22 22 22h74v61c0 121 72 187 176 187c77 0 139 -39 159 -55c8 -5 10 -19 5 -26l-19 -28c-7 -10 -18 -9 -29 -1c-23 17 -62 43 -117 43c-64 0 -101 -41 -101 -120v-61h286c12 0 22 -11 22 -22v-418c0 -12 -10 -22 -22 -22 h-30c-11 0 -22 10 -22 22v376h-234v-376c0 -12 -10 -22 -22 -22h-30c-12 0 -22 10 -22 22z"></glyph><glyph glyph-name="fl" unicode="fl" d="M119 22v376h-74c-12 0 -22 9 -22 21v21c0 13 10 22 22 22h74v53c0 135 85 195 184 195c96 0 155 -57 155 -57l8 28c3 8 7 19 22 19l13 -1c12 0 22 -11 22 -22v-655c0 -12 -10 -22 -22 -22h-29c-11 0 -22 10 -22 22v549s-53 72 -141 72c-61 0 -116 -39 -116 -128v-53h137 c12 0 22 -9 22 -22v-21c0 -12 -10 -21 -22 -21h-137v-376c0 -12 -10 -22 -22 -22h-30c-12 0 -22 10 -22 22z"></glyph><glyph glyph-name="f_f" unicode="ff" d="M119 22v376h-74c-12 0 -22 10 -22 22v20c0 13 10 22 22 22h74v31c0 137 87 207 199 207c67 0 117 -28 138 -45c23 33 58 55 123 55c63 0 106 -27 127 -47c9 -7 11 -18 6 -26l-17 -25c-8 -12 -19 -11 -31 -2c-19 15 -51 33 -86 33c-53 0 -78 -29 -78 -109v-72h136 c12 0 22 -9 22 -22v-20c0 -12 -10 -22 -22 -22h-136v-376c0 -12 -11 -22 -23 -22h-29c-12 0 -22 10 -22 22v376h-234v-376c0 -12 -10 -22 -22 -22h-29c-12 0 -22 10 -22 22zM192 462h234v72c0 14 0 32 5 53c-19 23 -69 46 -115 46c-74 0 -124 -41 -124 -140v-31z"></glyph><glyph glyph-name="f_f_i" unicode="ffi" d="M602 710c77 0 139 -39 159 -55c8 -5 10 -19 5 -26l-19 -28c-7 -10 -18 -9 -29 -1c-23 17 -62 43 -117 43c-64 0 -101 -36 -101 -109v-72h286c12 0 22 -11 22 -22v-418c0 -12 -10 -22 -22 -22h-30c-11 0 -22 10 -22 22v376h-234v-376c0 -12 -11 -22 -23 -22h-29 c-12 0 -22 10 -22 22v376h-234v-376c0 -12 -10 -22 -22 -22h-29c-12 0 -22 10 -22 22v376h-74c-12 0 -22 10 -22 22v20c0 13 10 22 22 22h74v31c0 137 87 207 199 207c67 0 120 -26 145 -46c25 33 69 56 139 56zM192 462h234v72c0 14 0 36 5 57c-21 20 -69 42 -115 42 c-74 0 -124 -41 -124 -140v-31z"></glyph><glyph glyph-name="f_f_l" unicode="ffl" d="M610 710c96 0 155 -57 155 -57l8 28c3 8 7 19 22 19l13 -1c12 0 22 -11 22 -22v-655c0 -12 -10 -22 -22 -22h-29c-11 0 -22 10 -22 22v549s-53 72 -141 72c-71 0 -116 -39 -116 -122v-59h137c12 0 22 -9 22 -22v-21c0 -12 -10 -21 -22 -21h-137v-376 c0 -12 -11 -22 -23 -22h-29c-12 0 -22 10 -22 22v376h-234v-376c0 -12 -10 -22 -22 -22h-29c-12 0 -22 10 -22 22v376h-74c-12 0 -22 10 -22 22v20c0 13 10 22 22 22h74v31c0 137 87 207 199 207c67 0 117 -23 151 -45c27 33 76 55 141 55zM192 462h234v61c0 25 3 49 8 67 c-21 21 -72 43 -118 43c-74 0 -124 -41 -124 -140v-31z"></glyph><glyph glyph-name="f_f_h" unicode="ffh" d="M192 462h234v61c0 25 3 49 8 67c-21 21 -72 43 -118 43c-74 0 -124 -41 -124 -140v-31zM808 0h-29c-11 0 -22 10 -22 22v549s-53 72 -141 72c-71 0 -116 -39 -116 -122v-59h137c12 0 22 -9 22 -22v-21c0 -12 -10 -21 -22 -21h-137v-376c0 -12 -11 -22 -23 -22h-29 c-12 0 -22 10 -22 22v376h-234v-376c0 -12 -10 -22 -22 -22h-29c-12 0 -22 10 -22 22v376h-74c-12 0 -22 10 -22 22v20c0 13 10 22 22 22h74v31c0 137 87 207 199 207c67 0 117 -23 151 -45c27 33 76 55 141 55c96 0 155 -57 155 -57l8 28c3 8 7 19 22 19h13 c11 0 22 -11 22 -22v-265s54 59 147 59c115 0 167 -71 167 -206v-244c0 -12 -11 -22 -22 -22h-31c-12 0 -22 10 -22 22v244c0 88 -26 139 -97 139c-88 0 -142 -66 -142 -66v-317c0 -12 -11 -22 -22 -22z"></glyph><glyph glyph-name="f_k" unicode="fk" d="M488 700h13c11 0 22 -11 22 -22v-391l192 161c10 9 19 14 28 14h56c20 0 19 -22 11 -28l-213 -177l229 -228c9 -8 8 -29 -12 -29h-57c-9 0 -18 5 -23 9l-211 223v-210c0 -12 -11 -22 -22 -22h-29c-11 0 -22 10 -22 22v549s-53 72 -141 72c-61 0 -116 -39 -116 -128v-53 h137c12 0 22 -9 22 -22v-21c0 -12 -10 -21 -22 -21h-137v-376c0 -12 -10 -22 -22 -22h-30c-12 0 -22 10 -22 22v376h-74c-12 0 -22 9 -22 21v21c0 13 10 22 22 22h74v53c0 135 85 195 184 195c96 0 155 -57 155 -57l8 28c3 8 7 19 22 19z"></glyph><glyph glyph-name="f_j" unicode="fj" d="M427 -57v455h-234v-376c0 -12 -10 -22 -22 -22h-30c-12 0 -22 10 -22 22v376h-74c-12 0 -22 10 -22 22v20c0 13 10 22 22 22h74v61c0 121 72 187 176 187c77 0 139 -39 159 -55c8 -5 10 -19 5 -26l-19 -28c-7 -10 -18 -9 -29 -1c-23 17 -62 43 -117 43 c-64 0 -101 -41 -101 -120v-61h286c12 0 22 -11 22 -22v-490c0 -125 -55 -182 -131 -198c-11 -2 -18 2 -21 12l-10 30c-5 14 3 23 14 27c47 17 74 42 74 122z"></glyph><glyph glyph-name="f_f_j" unicode="ffj" d="M192 462h234v72c0 14 0 36 5 57c-21 20 -69 42 -115 42c-74 0 -124 -41 -124 -140v-31zM734 -57v455h-234v-376c0 -12 -11 -22 -23 -22h-29c-12 0 -22 10 -22 22v376h-234v-376c0 -12 -10 -22 -22 -22h-29c-12 0 -22 10 -22 22v376h-74c-12 0 -22 10 -22 22v20 c0 13 10 22 22 22h74v31c0 137 87 207 199 207c67 0 120 -26 145 -46c25 33 69 56 139 56c77 0 139 -39 159 -55c8 -5 10 -19 5 -26l-19 -28c-7 -10 -18 -9 -29 -1c-23 17 -62 43 -117 43c-64 0 -101 -36 -101 -109v-72h286c12 0 22 -11 22 -22v-490 c0 -125 -55 -182 -131 -198c-11 -2 -18 2 -21 12l-10 30c-5 14 3 23 14 27c47 17 74 42 74 122z"></glyph><glyph glyph-name="f_b" unicode="fb" d="M488 700h13c11 0 22 -11 22 -22v-235s51 29 128 29c138 0 218 -105 218 -240c0 -132 -89 -243 -207 -243c-94 0 -146 60 -146 60l-6 -30c-2 -11 -9 -19 -20 -19h-18c-11 0 -22 10 -22 22v549s-53 72 -141 72c-61 0 -116 -39 -116 -128v-53h137c12 0 22 -9 22 -22v-21 c0 -12 -10 -21 -22 -21h-137v-376c0 -12 -10 -22 -22 -22h-30c-12 0 -22 10 -22 22v376h-74c-12 0 -22 9 -22 21v21c0 13 10 22 22 22h74v53c0 135 85 195 184 195c96 0 155 -57 155 -57l8 28c3 8 7 19 22 19zM523 132c0 0 47 -76 130 -76c84 0 140 85 140 175 c0 92 -53 174 -154 174c-64 0 -116 -29 -116 -29v-244z"></glyph><glyph glyph-name="f_f_k" unicode="ffk" d="M192 462h234v61c0 25 3 49 8 67c-21 21 -72 43 -118 43c-74 0 -124 -41 -124 -140v-31zM808 0h-29c-11 0 -22 10 -22 22v549s-53 72 -141 72c-71 0 -116 -39 -116 -122v-59h137c12 0 22 -9 22 -22v-21c0 -12 -10 -21 -22 -21h-137v-376c0 -12 -11 -22 -23 -22h-29 c-12 0 -22 10 -22 22v376h-234v-376c0 -12 -10 -22 -22 -22h-29c-12 0 -22 10 -22 22v376h-74c-12 0 -22 10 -22 22v20c0 13 10 22 22 22h74v31c0 137 87 207 199 207c67 0 117 -23 151 -45c27 33 76 55 141 55c96 0 155 -57 155 -57l8 28c3 8 7 19 22 19h13 c11 0 22 -11 22 -22v-391l192 161c10 9 19 14 28 14h56c20 0 19 -22 11 -28l-213 -177l229 -228c9 -8 8 -29 -12 -29h-57c-9 0 -18 5 -23 9l-211 223v-210c0 -12 -11 -22 -22 -22z"></glyph><glyph glyph-name="f_h" unicode="fh" d="M488 700h13c11 0 22 -11 22 -22v-265s54 59 147 59c115 0 167 -71 167 -206v-244c0 -12 -11 -22 -22 -22h-31c-12 0 -22 10 -22 22v244c0 88 -26 139 -97 139c-88 0 -142 -66 -142 -66v-317c0 -12 -11 -22 -22 -22h-29c-11 0 -22 10 -22 22v549s-53 72 -141 72 c-61 0 -116 -39 -116 -128v-53h137c12 0 22 -9 22 -22v-21c0 -12 -10 -21 -22 -21h-137v-376c0 -12 -10 -22 -22 -22h-30c-12 0 -22 10 -22 22v376h-74c-12 0 -22 9 -22 21v21c0 13 10 22 22 22h74v53c0 135 85 195 184 195c96 0 155 -57 155 -57l8 28c3 8 7 19 22 19z"></glyph><glyph glyph-name="f_f_b" unicode="ffb" d="M795 700h13c11 0 22 -11 22 -22v-235s51 29 128 29c138 0 218 -105 218 -240c0 -132 -89 -243 -207 -243c-94 0 -146 60 -146 60l-6 -30c-2 -11 -9 -19 -20 -19h-18c-11 0 -22 10 -22 22v549s-53 72 -141 72c-71 0 -116 -39 -116 -122v-59h137c12 0 22 -9 22 -22v-21 c0 -12 -10 -21 -22 -21h-137v-376c0 -12 -11 -22 -23 -22h-29c-12 0 -22 10 -22 22v376h-234v-376c0 -12 -10 -22 -22 -22h-29c-12 0 -22 10 -22 22v376h-74c-12 0 -22 10 -22 22v20c0 13 10 22 22 22h74v31c0 137 87 207 199 207c67 0 117 -23 151 -45c27 33 76 55 141 55 c96 0 155 -57 155 -57l8 28c3 8 7 19 22 19zM192 462h234v61c0 25 3 49 8 67c-21 21 -72 43 -118 43c-74 0 -124 -41 -124 -140v-31zM830 132c0 0 47 -76 130 -76c84 0 140 85 140 175c0 92 -53 174 -154 174c-64 0 -116 -29 -116 -29v-244z"></glyph><glyph glyph-name=".notdef" d="M50 30v640c0 21 9 30 30 30h439c21 0 30 -9 30 -30v-640c0 -21 -9 -30 -30 -30h-439c-21 0 -30 9 -30 30zM262 314c0 -7 7 -12 14 -12h36c9 0 15 4 15 13v26c0 48 105 63 105 150c0 65 -54 111 -125 111c-87 0 -130 -61 -130 -61c-4 -6 -6 -13 0 -18l22 -22 c6 -4 11 -4 17 0c13 12 36 41 84 41c40 0 61 -25 61 -52c0 -63 -99 -72 -99 -147v-29zM245 156c0 -26 22 -48 48 -48c27 0 49 22 49 48s-22 48 -49 48c-26 0 -48 -22 -48 -48z"></glyph><glyph glyph-name=".null"></glyph><glyph glyph-name=".null"></glyph><glyph glyph-name="CR" unicode="&#13;"></glyph><glyph glyph-name="space" unicode=" "></glyph><glyph glyph-name="exclam" unicode="!" d="M124 272c-9 0 -18 8 -19 16l-19 279v114c0 10 9 19 19 19h50c10 0 19 -9 19 -19v-112l-19 -281c-1 -8 -10 -16 -19 -16h-12zM73 47c0 32 26 57 57 57c32 0 57 -25 57 -57c0 -31 -25 -57 -57 -57c-31 0 -57 26 -57 57z"></glyph><glyph glyph-name="quotedbl" unicode="&quot;" d="M234 501c-10 0 -19 9 -19 19v161c0 10 9 19 19 19h34c13 0 22 -11 18 -25l-28 -159c-2 -8 -11 -15 -18 -15h-6zM83 501c-10 0 -19 9 -19 19v161c0 10 9 19 19 19h34c13 0 22 -11 18 -25l-28 -159c-2 -8 -11 -15 -18 -15h-6z"></glyph><glyph glyph-name="numbersign" unicode="#" d="M113 22l25 173h-70c-11 0 -19 9 -19 19v7c0 11 8 19 19 19h77l24 171h-72c-10 0 -19 9 -19 19v7c0 10 9 19 19 19h78l32 228c1 8 9 16 18 16h7c11 0 20 -10 18 -22l-30 -222h151l31 228c1 8 10 16 19 16h6c12 0 21 -10 19 -22l-30 -222h70c11 0 19 -9 19 -19v-7 c0 -10 -6 -19 -17 -19h-78l-24 -171h71c10 0 19 -8 19 -19v-7c0 -10 -7 -19 -17 -19h-80l-26 -179c-1 -9 -9 -16 -19 -16h-6c-12 0 -20 10 -19 22l26 173h-153l-25 -179c-1 -9 -10 -16 -19 -16h-6c-13 0 -21 10 -19 22zM189 240h153l23 171h-151z"></glyph><glyph glyph-name="dollar" unicode="$" d="M96 71c-8 7 -20 16 -6 34l18 23c8 11 19 16 32 5c6 -6 65 -62 142 -73v258c-99 40 -190 84 -190 214c0 64 53 166 190 177v32c0 11 9 19 19 19h7c10 0 17 -8 17 -19v-32c87 -7 151 -50 151 -50c6 -3 18 -15 6 -34l-12 -18c-10 -14 -17 -20 -35 -10c-6 3 -57 36 -110 44 v-259c121 -52 198 -103 198 -212c0 -99 -92 -172 -198 -179v-104c0 -12 -11 -18 -22 -18c-10 0 -21 6 -21 18v104c-105 9 -174 69 -186 80zM282 400v242c-85 -9 -116 -70 -116 -109c0 -62 43 -100 116 -133zM325 59c67 6 118 53 118 108c0 56 -40 94 -118 132v-240z"></glyph><glyph glyph-name="percent" unicode="%" d="M181 441c-75 0 -135 60 -135 135s60 135 135 135c74 0 135 -60 135 -135s-61 -135 -135 -135zM139 27l343 663c4 7 9 10 17 10h16c15 0 24 -14 17 -27l-345 -663c-2 -4 -8 -10 -17 -10h-14c-15 0 -24 14 -17 27zM181 498c41 0 76 34 76 78c0 41 -35 76 -76 76 c-44 0 -78 -35 -78 -76c0 -44 34 -78 78 -78zM362 124c0 75 60 135 135 135c74 0 135 -60 135 -135s-61 -135 -135 -135c-75 0 -135 60 -135 135zM419 124c0 -44 34 -78 78 -78c41 0 76 34 76 78c0 41 -35 76 -76 76c-44 0 -78 -35 -78 -76z"></glyph><glyph glyph-name="ampersand" unicode="&amp;" d="M71 174c0 108 85 168 139 200v2l-24 26c-39 41 -70 86 -70 146c0 76 56 162 177 162c108 0 169 -71 169 -154c0 -89 -90 -156 -148 -192l165 -165c26 53 40 114 40 178c0 22 8 23 23 23h24c21 0 19 -15 19 -23c0 -77 -22 -159 -59 -225l96 -96c12 -13 20 -23 -1 -46 l-12 -11c-12 -11 -27 -13 -42 3l-85 88c-54 -61 -128 -100 -218 -100c-126 0 -193 86 -193 184zM269 410c45 27 123 72 123 144c0 48 -37 97 -105 97c-66 0 -104 -47 -104 -105c0 -43 26 -77 64 -114zM141 173c0 -70 56 -121 126 -121c69 0 128 33 171 85l-185 194 c-46 -28 -112 -79 -112 -158z"></glyph><glyph glyph-name="quotesingle" unicode="'" d="M83 501c-10 0 -19 9 -19 19v161c0 10 9 19 19 19h34c13 0 22 -11 18 -25l-28 -159c-2 -8 -11 -15 -18 -15h-6z"></glyph><glyph glyph-name="parenleft" unicode="(" d="M289 -78c-114 6 -236 99 -236 393s122 387 236 393c11 1 17 -2 18 -10l2 -27c2 -9 -3 -16 -10 -17c-126 -25 -176 -143 -176 -339s50 -314 176 -339c7 -1 12 -8 10 -17l-2 -27c-1 -8 -7 -11 -18 -10z"></glyph><glyph glyph-name="parenright" unicode=")" d="M40 -24c126 25 176 143 176 339s-50 314 -176 339c-7 1 -12 8 -10 17l2 27c1 8 7 11 18 10c114 -6 236 -99 236 -393s-122 -387 -236 -393c-11 -1 -17 2 -18 10l-2 27c-2 9 3 16 10 17z"></glyph><glyph glyph-name="asterisk" unicode="*" d="M200 407c-10 0 -20 9 -20 19l2 85l-69 -50c-8 -6 -21 -3 -26 6l-8 11c-6 9 -3 21 5 28l78 48l-80 48c-8 7 -10 19 -5 27c3 4 5 7 8 12c6 8 18 12 26 6l71 -51l-2 86c0 10 10 18 20 18h13c10 0 20 -8 20 -18l-2 -85l69 52c9 5 20 2 26 -6l8 -12c5 -9 4 -20 -5 -27l-80 -50 l81 -50c9 -7 11 -19 6 -27l-7 -12c-7 -9 -19 -11 -28 -6l-70 51l2 -84c0 -10 -10 -19 -20 -19h-13z"></glyph><glyph glyph-name="plus" unicode="+" d="M267 157v157h-157c-10 0 -19 9 -19 19v28c0 10 9 19 19 19h157v158c0 10 9 18 19 18h28c10 0 19 -8 19 -18v-158h158c10 0 18 -9 18 -19v-28c0 -10 -8 -19 -18 -19h-158v-157c0 -10 -9 -18 -19 -18h-28c-10 0 -19 8 -19 18z"></glyph><glyph glyph-name="comma" unicode="," d="M57 49c0 35 20 61 56 61c49 0 75 -49 75 -110c0 -76 -33 -129 -68 -167c-6 -6 -11 -5 -16 -1l-19 17c-7 7 -4 13 1 18c28 30 56 67 56 119c0 7 -1 15 -4 23c-7 -5 -23 -9 -33 -9c-32 0 -48 27 -48 49z"></glyph><glyph glyph-name="hyphen" unicode="-" d="M87 220c-11 0 -19 8 -19 18v19c0 11 8 19 19 19h209c11 0 19 -8 19 -19v-19c0 -10 -8 -18 -19 -18h-209z"></glyph><glyph glyph-name="period" unicode="." d="M56 56c0 36 29 65 65 65c37 0 66 -29 66 -65s-29 -67 -66 -67c-36 0 -65 31 -65 67z"></glyph><glyph glyph-name="slash" unicode="/" d="M61 25l196 662c2 7 10 13 18 13h22c14 0 22 -11 18 -25l-195 -662c-2 -7 -11 -13 -18 -13h-23c-13 0 -22 11 -18 25z"></glyph><glyph glyph-name="zero" unicode="0" d="M320 -10c-159 0 -250 135 -250 360c0 226 91 360 250 360c160 0 251 -134 251 -360c0 -225 -91 -360 -251 -360zM320 60c114 0 173 102 173 290c0 187 -59 290 -173 290c-113 0 -172 -103 -172 -290c0 -188 59 -290 172 -290z"></glyph><glyph glyph-name="one" unicode="1" d="M155 572h-1l-73 -57c-8 -6 -16 -7 -23 1l-20 22c-7 8 -3 17 2 22l137 133c5 5 10 7 17 7h18c10 0 19 -9 19 -19v-661c0 -11 -9 -20 -19 -20h-37c-11 0 -20 9 -20 20v552z"></glyph><glyph glyph-name="two" unicode="2" d="M162 69v-2h301c11 0 20 -9 20 -20v-27c0 -11 -9 -20 -20 -20h-391c-12 0 -20 9 -20 20v14c0 11 0 16 13 30c80 86 159 174 240 259c70 77 104 138 104 187c0 59 -38 130 -145 130c-63 0 -114 -44 -146 -78c-8 -8 -19 -8 -28 0l-20 20c-6 7 -8 19 -1 27 c0 0 73 101 195 101c148 0 223 -93 223 -198c0 -91 -58 -158 -129 -234z"></glyph><glyph glyph-name="three" unicode="3" d="M58 81c-6 8 -7 19 1 25l28 24c12 8 20 6 28 -5c9 -12 65 -71 154 -71c78 0 148 46 148 130c0 77 -55 133 -182 133h-58c-11 0 -20 6 -20 23v25c0 16 5 22 22 22h57c110 0 163 57 163 125c0 81 -61 130 -135 130c-70 0 -112 -41 -135 -67c-6 -7 -16 -12 -26 -2l-25 19 c-8 7 -7 20 0 27c0 0 74 91 186 91c125 0 213 -72 213 -188c0 -79 -60 -141 -107 -163v-3c49 -20 124 -72 124 -164c0 -117 -86 -202 -229 -202c-126 0 -184 66 -207 91z"></glyph><glyph glyph-name="four" unicode="4" d="M50 159c-11 0 -20 9 -20 19v28c0 7 2 12 6 18l381 474c7 9 10 12 24 12h17c10 0 19 -9 19 -20v-468h84c11 0 19 -8 19 -18v-26c0 -10 -8 -19 -19 -19h-84v-139c0 -11 -9 -20 -19 -20h-33c-10 0 -20 9 -20 20v139h-355zM405 581h-2l-287 -354v-5h289v359z"></glyph><glyph glyph-name="five" unicode="5" d="M77 75c-13 16 -14 23 -2 35c8 7 15 16 24 23c9 8 17 10 25 -1c22 -26 65 -76 153 -76c99 0 162 87 162 169c0 80 -52 148 -162 148h-157c-20 0 -32 19 -32 36v272c0 10 9 19 20 19h311c11 0 20 -9 20 -19v-30c0 -10 -9 -20 -20 -20h-262v-189h120c155 0 238 -82 238 -216 c0 -129 -100 -236 -239 -236c-115 0 -173 54 -199 85z"></glyph><glyph glyph-name="six" unicode="6" d="M64 283c0 274 234 393 338 434c11 4 19 -1 23 -10l11 -25c6 -12 0 -22 -18 -30c-62 -26 -229 -110 -265 -249c0 0 68 46 157 46c116 0 221 -86 221 -223c0 -130 -104 -236 -227 -236c-167 0 -240 129 -240 293zM304 58c86 0 154 75 154 163c0 90 -69 161 -155 161 c-96 0 -163 -67 -163 -67c-3 -15 -4 -31 -4 -48c0 -97 47 -209 168 -209z"></glyph><glyph glyph-name="seven" unicode="7" d="M388 629v2h-336c-10 0 -19 10 -19 20v30c0 10 9 19 19 19h414c11 0 20 -6 20 -19c0 -3 0 -7 -5 -17l-296 -637c-4 -9 -14 -27 -34 -27h-30c-10 0 -19 9 -19 20c0 8 2 15 7 25z"></glyph><glyph glyph-name="eight" unicode="8" d="M68 189c0 89 76 151 124 171v4c-46 21 -106 80 -106 159c0 114 90 187 213 187c124 0 214 -73 214 -187c0 -79 -60 -138 -106 -159v-4c48 -20 124 -82 124 -171c0 -112 -82 -199 -233 -199c-147 0 -230 87 -230 199zM300 397c94 9 137 59 137 123c0 77 -60 128 -137 128 c-79 0 -137 -51 -137 -128c0 -64 41 -114 137 -123zM145 182c0 -79 60 -131 153 -131c92 0 156 50 156 131c0 64 -57 128 -154 138c-99 -10 -155 -74 -155 -138z"></glyph><glyph glyph-name="nine" unicode="9" d="M141 20c-5 12 -1 23 18 29c47 16 230 109 266 248c0 0 -68 -47 -156 -47c-117 0 -222 87 -222 224c0 130 104 236 228 236c167 0 240 -130 240 -294c0 -274 -235 -392 -339 -434c-10 -4 -19 2 -23 11zM276 317c96 0 162 67 162 67c3 15 4 31 4 48c0 97 -47 210 -167 210 c-87 0 -155 -75 -155 -164s69 -161 156 -161z"></glyph><glyph glyph-name="colon" unicode=":" d="M134 340c-36 0 -66 30 -66 65c0 38 30 67 66 67c37 0 66 -29 66 -67c0 -35 -29 -65 -66 -65zM68 56c0 36 30 65 66 65c37 0 66 -29 66 -65s-29 -67 -66 -67c-36 0 -66 31 -66 67z"></glyph><glyph glyph-name="semicolon" unicode=";" d="M135 340c-36 0 -66 30 -66 65c0 38 30 67 66 67c37 0 65 -29 65 -67c0 -35 -28 -65 -65 -65zM72 49c0 35 20 61 56 61c49 0 75 -49 75 -110c0 -76 -33 -129 -68 -167c-6 -6 -11 -5 -16 -1l-19 17c-7 7 -4 13 1 18c28 30 56 67 56 119c0 7 -1 15 -4 23 c-7 -5 -23 -9 -33 -9c-32 0 -48 27 -48 49z"></glyph><glyph glyph-name="less" unicode="&lt;" d="M107 210c-5 3 -10 11 -10 17v5c0 6 5 14 10 17l340 212c13 8 28 0 28 -16v-36c0 -6 -3 -14 -11 -19l-261 -160l261 -154c10 -6 11 -13 11 -19v-36c0 -16 -15 -24 -28 -16z"></glyph><glyph glyph-name="equal" unicode="=" d="M150 351c-11 0 -19 9 -19 19v30c0 10 8 19 19 19h299c11 0 19 -9 19 -19v-30c0 -10 -8 -19 -19 -19h-299zM150 140c-11 0 -19 9 -19 19v31c0 10 8 19 19 19h299c11 0 19 -9 19 -19v-31c0 -10 -8 -19 -19 -19h-299z"></glyph><glyph glyph-name="greater" unicode="&gt;" d="M124 21v36c0 6 3 15 11 19l261 154l-261 160c-9 6 -11 13 -11 19v36c0 16 15 24 28 16l340 -212c5 -3 10 -11 10 -17v-5c0 -6 -5 -14 -10 -17l-340 -205c-13 -8 -28 0 -28 16z"></glyph><glyph glyph-name="question" unicode="?" d="M205 272c-10 0 -19 8 -19 19v42c0 124 150 114 150 227c0 47 -34 88 -99 88c-81 0 -118 -47 -138 -68c-9 -9 -17 -9 -26 -1l-19 17c-8 7 -6 18 0 26c0 0 57 88 183 88c104 0 174 -61 174 -153c0 -131 -158 -142 -158 -224v-41c0 -14 -11 -20 -21 -20h-27zM160 47 c0 32 26 57 57 57c32 0 57 -25 57 -57c0 -31 -25 -57 -57 -57c-31 0 -57 26 -57 57z"></glyph><glyph glyph-name="at" unicode="@" d="M59 223c0 284 179 487 460 487c268 0 422 -181 422 -422c0 -132 -69 -268 -209 -268c-69 0 -104 36 -115 78h-8c-21 -42 -65 -78 -126 -78c-101 0 -175 83 -175 211c0 133 75 209 178 209c80 0 115 -53 115 -53c7 28 6 43 34 43h10c10 0 19 -9 19 -19v-213 c0 -97 27 -122 72 -122c77 0 143 77 143 212c0 205 -123 366 -362 366c-240 0 -395 -164 -395 -431c0 -190 110 -324 264 -390c15 -7 15 -11 9 -25l-11 -27c-4 -9 -11 -12 -20 -8c-178 75 -305 233 -305 450zM372 230c0 -94 55 -144 117 -144c66 0 97 48 108 94v142 s-33 56 -107 56c-67 0 -118 -52 -118 -148z"></glyph><glyph glyph-name="A" unicode="A" d="M24 0c-15 0 -23 13 -17 26l304 673c3 6 8 11 17 11h10c9 0 14 -5 17 -11l302 -673c6 -13 -2 -26 -17 -26h-40c-9 0 -15 6 -17 11l-74 165h-355l-73 -165c-2 -5 -8 -11 -17 -11h-40zM182 238h300c-49 109 -97 219 -146 328h-8z"></glyph><glyph glyph-name="B" unicode="B" d="M171 386h152c82 0 131 55 131 125c0 72 -49 120 -131 120h-152v-245zM169 67h176c81 0 132 55 132 127c0 71 -60 123 -136 123h-172v-250zM442 357v-2c53 -22 119 -71 119 -162c0 -112 -87 -193 -211 -193h-235c-11 0 -19 9 -19 19v662c0 10 8 19 19 19h221 c122 0 203 -79 203 -184c0 -81 -51 -131 -97 -159z"></glyph><glyph glyph-name="C" unicode="C" d="M52 349c0 200 161 361 361 361c101 0 174 -35 242 -93c8 -8 9 -20 1 -28l-27 -27c-8 -10 -16 -9 -26 1c-52 45 -118 75 -191 75c-158 0 -279 -133 -279 -288c0 -154 121 -287 279 -287c87 0 138 30 191 75c10 8 18 7 26 -1l23 -23c8 -6 6 -20 -1 -27 c-66 -60 -149 -97 -238 -97c-200 0 -361 159 -361 359z"></glyph><glyph glyph-name="D" unicode="D" d="M96 19v662c0 10 8 19 18 19h224c193 0 351 -157 351 -349c0 -194 -158 -351 -351 -351h-224c-10 0 -18 9 -18 19zM172 69h157c164 0 279 117 279 282c0 164 -115 281 -279 281h-157v-563z"></glyph><glyph glyph-name="E" unicode="E" d="M96 19v662c0 10 8 19 19 19h394c11 0 19 -9 19 -19v-29c0 -10 -8 -19 -19 -19h-336v-244h287c10 0 19 -9 19 -19v-29c0 -11 -9 -19 -19 -19h-287v-255h336c11 0 19 -9 19 -19v-29c0 -10 -8 -19 -19 -19h-394c-11 0 -19 9 -19 19z"></glyph><glyph glyph-name="F" unicode="F" d="M96 19v662c0 10 8 19 19 19h394c11 0 19 -9 19 -19v-29c0 -10 -8 -19 -19 -19h-336v-274h287c10 0 19 -9 19 -19v-29c0 -10 -9 -19 -19 -19h-287v-273c0 -10 -9 -19 -19 -19h-39c-11 0 -19 9 -19 19z"></glyph><glyph glyph-name="G" unicode="G" d="M52 349c0 200 161 361 361 361c101 0 174 -35 242 -93c8 -8 9 -20 1 -28c-9 -9 -20 -19 -28 -28c-9 -10 -15 -9 -26 1c-51 45 -123 78 -190 78c-158 0 -278 -132 -278 -287c0 -154 120 -289 278 -289c110 0 180 42 180 42v140h-115c-11 0 -19 8 -19 18v37 c0 11 8 19 19 19h173c10 0 18 -9 18 -19v-229c0 -5 -4 -13 -8 -16c0 0 -102 -66 -247 -66c-200 0 -361 159 -361 359z"></glyph><glyph glyph-name="H" unicode="H" d="M96 19v662c0 10 9 19 19 19h39c11 0 19 -9 19 -19v-292h406v292c0 10 8 19 19 19h39c10 0 19 -9 19 -19v-662c0 -10 -9 -19 -19 -19h-39c-11 0 -19 9 -19 19v303h-406v-303c0 -10 -8 -19 -19 -19h-39c-10 0 -19 9 -19 19z"></glyph><glyph glyph-name="I" unicode="I" d="M96 19v662c0 10 9 19 19 19h40c10 0 19 -9 19 -19v-662c0 -10 -9 -19 -19 -19h-40c-10 0 -19 9 -19 19z"></glyph><glyph glyph-name="J" unicode="J" d="M21 64c-5 8 -5 18 1 25l20 23c14 17 24 8 34 -3c17 -19 55 -52 106 -52c53 0 115 34 115 140v484c0 10 8 19 19 19h39c11 0 19 -9 19 -19v-482c0 -139 -84 -209 -192 -209c-96 0 -144 53 -161 74z"></glyph><glyph glyph-name="K" unicode="K" d="M96 24v652c0 13 10 24 24 24h29c13 0 24 -11 24 -24v-289l312 303c4 5 13 10 19 10h49c18 0 28 -20 12 -35l-316 -301l331 -333c7 -7 5 -31 -17 -31h-51c-7 0 -16 4 -18 7l-321 329v-312c0 -13 -11 -24 -24 -24h-29c-14 0 -24 11 -24 24z"></glyph><glyph glyph-name="L" unicode="L" d="M96 19v662c0 10 8 19 19 19h39c10 0 19 -9 19 -19v-614h288c11 0 19 -9 19 -19v-29c0 -10 -8 -19 -19 -19h-346c-11 0 -19 9 -19 19z"></glyph><glyph glyph-name="M" unicode="M" d="M52 24l129 672c2 8 10 14 18 14h16c7 0 15 -5 17 -11l198 -551h5l195 551c2 6 10 11 17 11h16c8 0 16 -6 18 -14l129 -672c3 -14 -3 -24 -18 -24h-40c-8 0 -16 7 -18 14l-89 515h-4l-184 -528c-2 -6 -11 -11 -17 -11h-18c-6 0 -15 5 -17 11l-186 528h-4l-87 -515 c-1 -7 -10 -14 -18 -14h-40c-15 0 -21 10 -18 24z"></glyph><glyph glyph-name="N" unicode="N" d="M96 19v673c0 10 9 18 19 18h15c7 0 12 -2 16 -8l445 -554h2v533c0 10 8 19 19 19h35c10 0 19 -9 19 -19v-673c0 -10 -9 -18 -19 -18h-8c-7 0 -12 2 -16 8l-453 565h-1v-544c0 -10 -8 -19 -19 -19h-35c-10 0 -19 9 -19 19z"></glyph><glyph glyph-name="O" unicode="O" d="M52 349c0 200 159 361 359 361s360 -161 360 -361s-160 -359 -360 -359s-359 159 -359 359zM122 349c0 -159 130 -289 289 -289s290 130 290 289s-131 291 -290 291s-289 -132 -289 -291z"></glyph><glyph glyph-name="P" unicode="P" d="M96 19v662c0 10 8 19 19 19h221c123 0 224 -100 224 -221c0 -124 -101 -225 -223 -225h-165v-235c0 -10 -9 -19 -19 -19h-38c-11 0 -19 9 -19 19zM172 328h159c82 0 152 61 152 153c0 89 -70 143 -152 143h-159v-296z"></glyph><glyph glyph-name="Q" unicode="Q" d="M52 349c0 200 159 361 359 361s360 -161 360 -361c0 -148 -87 -273 -213 -329l117 -188c9 -14 0 -30 -16 -30h-50c-4 0 -12 3 -16 10l-109 184c-22 -4 -50 -6 -73 -6c-200 0 -359 159 -359 359zM122 349c0 -159 130 -289 289 -289s290 130 290 289s-131 291 -290 291 s-289 -132 -289 -291z"></glyph><glyph glyph-name="R" unicode="R" d="M96 19v662c0 10 8 19 19 19h259c120 0 218 -94 218 -213c0 -92 -61 -169 -148 -204l137 -254c7 -13 0 -29 -17 -29h-48c-12 0 -17 5 -22 15l-130 259h-191v-255c0 -10 -9 -19 -19 -19h-39c-11 0 -19 9 -19 19zM175 340h194c77 0 144 64 144 146c0 76 -67 141 -144 141 h-194v-287z"></glyph><glyph glyph-name="S" unicode="S" d="M63 71c-8 7 -20 16 -6 34l15 19c10 13 18 18 32 6c7 -6 83 -73 172 -73c81 0 134 51 134 114c0 69 -60 109 -175 158c-110 47 -176 89 -176 203c0 68 54 178 213 178c98 0 171 -51 171 -51c6 -3 17 -15 6 -34l-10 -17c-8 -14 -19 -14 -35 -5c-42 25 -77 40 -133 40 c-106 0 -138 -68 -138 -110c0 -71 51 -102 135 -137c135 -55 222 -106 222 -222c0 -104 -99 -184 -216 -184c-118 0 -198 69 -211 81z"></glyph><glyph glyph-name="T" unicode="T" d="M219 19v614h-174c-11 0 -19 9 -19 19v29c0 10 8 19 19 19h424c11 0 19 -9 19 -19v-29c0 -10 -8 -19 -19 -19h-174v-614c0 -10 -9 -19 -19 -19h-38c-10 0 -19 9 -19 19z"></glyph><glyph glyph-name="U" unicode="U" d="M89 254v427c0 10 9 19 19 19h38c11 0 19 -9 19 -19v-421c0 -114 71 -199 188 -199c118 0 190 83 190 197v423c0 10 8 19 19 19h38c10 0 19 -9 19 -19v-427c0 -152 -108 -264 -266 -264c-157 0 -264 112 -264 264z"></glyph><glyph glyph-name="V" unicode="V" d="M309 1l-302 673c-6 13 2 26 17 26h40c9 0 15 -6 17 -11l249 -560h4l249 560c2 5 9 11 17 11h40c15 0 23 -13 17 -26l-304 -673c-3 -6 -9 -11 -17 -11h-10c-7 0 -14 5 -17 11z"></glyph><glyph glyph-name="W" unicode="W" d="M218 4l-189 672c-4 14 4 24 18 24h42c8 0 16 -7 18 -14l139 -518h4l167 531c2 6 8 11 17 11h18c8 0 15 -5 17 -11l170 -531h4l136 518c2 7 10 14 18 14h42c14 0 22 -10 18 -24l-189 -672c-2 -8 -10 -14 -18 -14h-16c-7 0 -14 5 -17 11l-173 541h-5l-170 -541 c-3 -6 -10 -11 -17 -11h-16c-8 0 -16 6 -18 14z"></glyph><glyph glyph-name="X" unicode="X" d="M35 28l203 331l-195 313c-8 13 0 28 17 28h54c7 0 14 -4 17 -9l154 -265h1l156 265c3 5 9 9 17 9h54c17 0 25 -15 17 -28l-195 -313l202 -331c8 -14 0 -28 -17 -28h-46c-8 0 -15 5 -17 9l-171 283h-1l-169 -283c-3 -5 -9 -9 -17 -9h-46c-18 0 -26 15 -18 28z"></glyph><glyph glyph-name="Y" unicode="Y" d="M248 19v318l-241 334c-8 13 0 29 16 29h47c7 0 13 -5 16 -9l202 -279l202 279c3 4 9 9 16 9h47c16 0 24 -16 16 -29l-244 -333v-319c0 -10 -9 -19 -19 -19h-39c-11 0 -19 9 -19 19z"></glyph><glyph glyph-name="Z" unicode="Z" d="M27 19v8c0 7 2 13 5 19l358 581v3h-315c-10 0 -19 9 -19 19v32c0 10 9 19 19 19h405c10 0 19 -9 19 -19v-3c0 -7 -2 -13 -5 -19l-364 -588v-1h330c11 0 19 -9 19 -19v-32c0 -10 -8 -19 -19 -19h-414c-10 0 -19 9 -19 19z"></glyph><glyph glyph-name="bracketleft" unicode="[" d="M148 -175h137c10 0 19 -8 19 -18v-26c0 -10 -9 -19 -19 -19h-186c-10 0 -19 9 -19 19v900c0 10 9 19 19 19h186c10 0 19 -9 19 -19v-25c0 -11 -9 -19 -19 -19h-137v-812z"></glyph><glyph glyph-name="backslash" unicode="\" d="M256 13l-195 662c-4 14 4 25 18 25h32c8 0 16 -6 18 -13l196 -662c4 -14 -5 -25 -18 -25h-33c-7 0 -16 6 -18 13z"></glyph><glyph glyph-name="bracketright" unicode="]" d="M46 -175h137v812h-137c-10 0 -19 8 -19 19v25c0 10 9 19 19 19h186c10 0 19 -9 19 -19v-900c0 -10 -9 -19 -19 -19h-186c-10 0 -19 9 -19 19v26c0 10 9 18 19 18z"></glyph><glyph glyph-name="asciicircum" unicode="^" d="M60 398c-16 0 -24 15 -16 28l201 278c3 5 11 10 17 10h5c6 0 14 -5 17 -10l196 -278c8 -13 0 -28 -16 -28h-33c-10 0 -16 6 -19 11l-149 211l-151 -211c-5 -7 -11 -11 -19 -11h-33z"></glyph><glyph glyph-name="underscore" unicode="_" d="M58 -29c0 11 8 19 19 19h299c11 0 19 -8 19 -19v-16c0 -10 -8 -18 -19 -18h-299c-11 0 -19 8 -19 18v16z"></glyph><glyph glyph-name="grave" unicode="`" d="M237 559l-161 67c-8 3 -10 13 -6 21l18 36c5 9 20 7 26 3l150 -84c6 -3 10 -11 6 -19l-10 -22c-4 -8 -9 -8 -23 -2z"></glyph><glyph glyph-name="a" unicode="a" d="M42 140c0 88 66 153 185 153c49 0 99 -15 99 -15c1 85 -10 127 -76 127c-63 0 -116 -20 -137 -27c-12 -5 -18 1 -22 12l-10 27c-4 14 3 20 14 25c23 10 83 30 159 30c118 0 143 -58 143 -194v-256c0 -12 -10 -22 -22 -22h-19c-12 0 -16 7 -19 17l-9 31 c-24 -24 -72 -59 -143 -59c-81 0 -143 58 -143 151zM115 140c0 -47 32 -84 83 -84c57 0 107 32 127 62v94c-15 8 -52 18 -98 18c-64 0 -112 -31 -112 -90z"></glyph><glyph glyph-name="b" unicode="b" d="M78 22v656c0 11 9 22 21 22h30c11 0 22 -11 22 -22v-235s51 29 128 29c138 0 218 -105 218 -240c0 -132 -89 -243 -207 -243c-94 0 -146 60 -146 60l-6 -30c-2 -11 -9 -19 -20 -19h-18c-12 0 -22 10 -22 22zM151 132c0 0 48 -76 131 -76c84 0 140 85 140 175 c0 92 -53 174 -154 174c-64 0 -117 -29 -117 -29v-244z"></glyph><glyph glyph-name="c" unicode="c" d="M48 230c0 136 100 242 234 242c69 0 125 -27 168 -76c9 -11 7 -24 -4 -33l-16 -15c-15 -13 -24 -3 -33 7c-32 36 -69 50 -116 50c-88 0 -158 -78 -158 -174c0 -98 69 -175 155 -175c70 0 100 36 126 66c13 15 26 11 39 -2l6 -6c10 -10 14 -20 6 -32 c-35 -51 -97 -93 -174 -93c-137 0 -233 102 -233 241z"></glyph><glyph glyph-name="d" unicode="d" d="M49 232c0 135 80 240 219 240c76 0 128 -29 128 -29v235c0 11 10 22 22 22h28c12 0 23 -11 23 -22v-656c0 -12 -11 -22 -23 -22h-18c-10 0 -16 8 -20 19l-6 30s-59 -60 -146 -60c-117 0 -207 111 -207 243zM124 231c0 -90 57 -175 141 -175c83 0 131 74 131 74v249 s-54 26 -118 26c-99 0 -154 -82 -154 -174z"></glyph><glyph glyph-name="e" unicode="e" d="M49 231c0 130 84 241 224 241c121 0 209 -89 209 -210c0 -8 -1 -20 -2 -28c-1 -12 -11 -20 -21 -20h-336c2 -77 67 -158 151 -158c61 0 99 21 125 38c16 11 23 15 35 -3l12 -17c9 -14 13 -19 -4 -32c-28 -22 -89 -53 -169 -53c-140 0 -224 110 -224 242zM124 273h284 c-2 68 -56 132 -135 132c-78 0 -140 -60 -149 -132z"></glyph><glyph glyph-name="f" unicode="f" d="M120 22v376h-74c-12 0 -22 10 -22 22v20c0 13 10 22 22 22h74v73c0 115 54 175 154 175c63 0 106 -28 127 -48c7 -7 9 -19 4 -26l-19 -24c-8 -11 -16 -10 -29 -1c-25 18 -46 32 -85 32c-53 0 -78 -39 -78 -108v-73h137c12 0 22 -9 22 -22v-20c0 -12 -10 -22 -22 -22h-137 v-376c0 -12 -10 -22 -22 -22h-30c-12 0 -22 10 -22 22z"></glyph><glyph glyph-name="g" unicode="g" d="M124 232c0 -100 66 -175 154 -175c64 0 117 38 117 38v253s-47 56 -122 56c-92 0 -149 -82 -149 -172zM469 440v-443c0 -158 -97 -216 -202 -216c-73 0 -137 38 -161 60c-8 7 -10 20 -5 27l20 29c7 11 19 11 30 1c25 -21 65 -49 116 -49c73 0 129 40 129 148v33 s-52 -41 -128 -41c-127 0 -219 107 -219 242c0 132 90 241 216 241c83 0 138 -47 138 -47l7 21c5 9 10 16 22 16h14c12 0 23 -11 23 -22z"></glyph><glyph glyph-name="h" unicode="h" d="M78 22v656c0 11 10 22 22 22h30c11 0 22 -11 22 -22v-265s54 59 147 59c115 0 167 -71 167 -206v-244c0 -12 -11 -22 -22 -22h-31c-12 0 -22 10 -22 22v244c0 88 -26 139 -97 139c-88 0 -142 -66 -142 -66v-317c0 -12 -11 -22 -22 -22h-30c-12 0 -22 10 -22 22z"></glyph><glyph glyph-name="i" unicode="i" d="M113 581c-30 0 -54 25 -54 54c0 32 24 56 54 56c31 0 55 -24 55 -56c0 -29 -24 -54 -55 -54zM78 22v418c0 11 10 22 22 22h30c11 0 22 -11 22 -22v-418c0 -12 -11 -22 -22 -22h-30c-12 0 -22 10 -22 22z"></glyph><glyph glyph-name="j" unicode="j" d="M114 581c-31 0 -55 25 -55 54c0 32 24 56 55 56c30 0 54 -24 54 -56c0 -29 -24 -54 -54 -54zM152 440v-490c0 -125 -55 -182 -131 -198c-11 -2 -18 2 -21 12l-10 30c-5 14 3 23 14 27c47 17 74 42 74 122v497c0 13 10 22 22 22h30c11 0 22 -9 22 -22z"></glyph><glyph glyph-name="k" unicode="k" d="M78 22v656c0 11 10 22 22 22h30c11 0 22 -11 22 -22v-391l192 161c10 9 19 14 28 14h56c20 0 19 -22 11 -28l-213 -177l229 -228c9 -8 8 -29 -12 -29h-57c-9 0 -18 5 -23 9l-211 223v-210c0 -12 -11 -22 -22 -22h-30c-12 0 -22 10 -22 22z"></glyph><glyph glyph-name="l" unicode="l" d="M83 22v656c0 11 10 22 22 22h30c11 0 22 -11 22 -22v-656c0 -12 -11 -22 -22 -22h-30c-12 0 -22 10 -22 22z"></glyph><glyph glyph-name="m" unicode="m" d="M78 22v418c0 11 10 22 22 22h16c10 0 16 -4 18 -14l10 -35s48 59 143 59c69 0 106 -25 136 -73c6 4 72 73 165 73c134 0 166 -87 166 -206v-244c0 -12 -10 -22 -22 -22h-30c-12 0 -22 10 -22 22v244c0 86 -28 139 -98 139c-75 0 -117 -49 -134 -63c4 -20 6 -52 6 -76 v-244c0 -12 -10 -22 -22 -22h-30c-11 0 -22 10 -22 22v244c0 88 -29 139 -104 139c-82 0 -124 -64 -124 -64v-319c0 -12 -11 -22 -22 -22h-30c-12 0 -22 10 -22 22z"></glyph><glyph glyph-name="n" unicode="n" d="M78 22v418c0 11 10 22 22 22h16c10 0 16 -4 18 -14l10 -35s59 59 155 59c134 0 167 -87 167 -206v-244c0 -12 -11 -22 -22 -22h-30c-12 0 -22 10 -22 22v254c0 88 -30 129 -98 129c-87 0 -142 -64 -142 -64v-319c0 -12 -11 -22 -22 -22h-30c-12 0 -22 10 -22 22z"></glyph><glyph glyph-name="o" unicode="o" d="M48 232c0 130 104 240 232 240s232 -110 232 -240c0 -132 -104 -243 -232 -243s-232 111 -232 243zM121 232c0 -96 68 -176 159 -176s158 80 158 176c0 94 -67 173 -158 173s-159 -79 -159 -173z"></glyph><glyph glyph-name="p" unicode="p" d="M151 27v-243c0 -12 -11 -22 -22 -22h-29c-12 0 -22 10 -22 22v656c0 11 10 22 22 22h17c11 0 14 -3 19 -15l7 -22s56 47 139 47c126 0 215 -109 215 -241c0 -135 -91 -242 -218 -242c-77 0 -128 38 -128 38zM151 96c0 0 53 -40 117 -40c89 0 154 75 154 176 c0 90 -56 173 -149 173c-74 0 -122 -56 -122 -56v-253z"></glyph><glyph glyph-name="g.alt" d="M41 71c0 88 74 112 74 112s-36 37 -36 104c0 104 74 185 194 185h195c14 0 22 -9 22 -22v-15c0 -7 -4 -17 -12 -18l-62 -13s51 -25 51 -117c0 -105 -74 -180 -194 -180c-74 0 -112 29 -112 29s-51 -8 -51 -54c0 -29 20 -48 63 -48h169c98 0 171 -26 171 -127 c0 -85 -96 -156 -236 -156c-155 0 -218 62 -218 129c0 64 49 84 63 89v3c-30 8 -81 34 -81 99zM275 173c69 0 118 41 118 118c0 75 -49 114 -118 114c-70 0 -125 -39 -125 -114c0 -77 55 -118 125 -118zM134 -108c0 -46 63 -69 142 -69c76 0 157 25 157 82 c0 41 -29 59 -91 59h-128s-80 -4 -80 -72z"></glyph><glyph glyph-name="r" unicode="r" d="M78 22v418c0 11 10 22 22 22h16c9 0 17 -5 20 -16l8 -33s46 59 142 59c35 0 92 -5 81 -37l-13 -36c-5 -15 -16 -16 -27 -11s-28 13 -50 13c-89 0 -125 -59 -125 -59v-320c0 -12 -11 -22 -22 -22h-30c-12 0 -22 10 -22 22z"></glyph><glyph glyph-name="s" unicode="s" d="M207 -11c-77 0 -129 34 -153 56c-5 5 -7 12 -3 20l14 26c6 11 14 15 27 6c16 -12 56 -41 115 -41c47 0 79 22 79 58c0 44 -36 62 -103 95c-61 30 -131 63 -131 142c0 48 36 121 143 121c60 0 110 -20 132 -36c10 -8 12 -18 5 -31l-10 -19c-7 -13 -22 -14 -32 -8 c-20 12 -52 27 -95 27c-51 0 -68 -29 -68 -51c0 -41 32 -56 88 -82c80 -37 149 -67 149 -151c0 -73 -63 -132 -157 -132z"></glyph><glyph glyph-name="t" unicode="t" d="M108 398h-61c-14 0 -23 10 -23 22v20c0 13 9 22 23 22h61v128c0 12 11 21 22 22l31 2c12 1 21 -10 21 -22v-130h136c13 0 23 -9 23 -22v-20c0 -12 -10 -22 -23 -22h-136v-276c0 -48 15 -66 41 -66c43 0 72 18 91 30c18 11 24 2 29 -9l9 -21c6 -15 4 -22 -8 -30 c-20 -14 -68 -37 -130 -37c-88 0 -106 56 -106 128v281z"></glyph><glyph glyph-name="u" unicode="u" d="M73 191v249c0 11 9 22 22 22h30c12 0 22 -11 22 -22v-250c0 -92 30 -134 97 -134c69 0 110 43 131 67v317c0 11 9 22 21 22h31c11 0 21 -11 21 -22v-418c0 -12 -10 -22 -21 -22h-16c-13 0 -18 8 -21 20l-9 29c-17 -18 -60 -60 -143 -60c-133 0 -165 80 -165 202z"></glyph><glyph glyph-name="v" unicode="v" d="M221 1l-195 435c-7 14 0 26 17 26h35c11 0 18 -5 21 -13l143 -340h2l152 340c3 8 10 13 18 13h32c18 0 24 -12 18 -26l-199 -435c-2 -6 -8 -12 -19 -12h-6c-10 0 -17 6 -19 12z"></glyph><glyph glyph-name="w" unicode="w" d="M351 348h-2l-136 -347c-2 -6 -8 -12 -19 -12h-6c-11 0 -17 5 -20 12l-128 435c-4 15 0 26 18 26h34c11 0 19 -5 21 -13l85 -314h2l130 326c2 6 9 11 20 11h6c9 0 17 -5 19 -11l129 -327h2l85 315c2 8 10 13 19 13h35c16 0 21 -11 16 -26l-126 -435c-2 -7 -10 -12 -19 -12 h-6c-10 0 -17 6 -20 12z"></glyph><glyph glyph-name="x" unicode="x" d="M55 0c-20 0 -26 16 -15 30l154 205l-150 197c-11 15 -4 30 15 30h43c8 0 15 -4 18 -9l116 -160h2l120 160c4 5 10 9 18 9h43c19 0 26 -15 15 -30l-150 -195l151 -207c11 -15 3 -30 -15 -30h-38c-7 0 -14 5 -18 10l-126 174h-2l-125 -175c-4 -5 -11 -9 -18 -9h-38z"></glyph><glyph glyph-name="y" unicode="y" d="M198 1l-169 436c-6 15 0 25 18 25h42c9 0 17 -5 20 -13l131 -367h2l156 367c3 8 11 13 20 13h37c18 0 25 -11 18 -26l-289 -660c-3 -7 -12 -14 -20 -14h-36c-18 0 -26 12 -19 28z"></glyph><glyph glyph-name="z" unicode="z" d="M38 22v2c0 7 2 12 6 18l234 354v3h-209c-11 0 -19 10 -19 22v19c0 13 8 22 19 22h293c15 0 21 -8 21 -20c0 -4 -1 -8 -4 -12l-236 -364v-3h193c14 0 22 -8 22 -22v-19c0 -12 -8 -22 -22 -22h-276c-12 0 -22 10 -22 22z"></glyph><glyph glyph-name="braceleft" unicode="{" d="M115 -26v146c0 45 -45 74 -69 78c-8 1 -15 9 -15 17v31c0 8 7 14 15 15c24 4 69 33 69 78v146c0 182 142 225 245 225c10 0 20 -5 20 -17v-19c0 -9 -5 -17 -13 -18c-95 -14 -183 -63 -183 -171v-118c0 -100 -50 -122 -79 -134v-7c29 -12 79 -34 79 -134v-118 c0 -108 88 -156 183 -170c8 -1 13 -6 13 -17v-20c0 -10 -10 -17 -20 -17c-103 0 -245 42 -245 224z"></glyph><glyph glyph-name="bar" unicode="|" d="M79 -220v961c0 11 9 19 19 19h7c10 0 18 -8 18 -19v-961c0 -10 -9 -18 -19 -18h-6c-10 0 -19 8 -19 18z"></glyph><glyph glyph-name="braceright" unicode="}" d="M219 92c0 100 50 122 79 134v7c-29 12 -79 34 -79 134v118c0 108 -88 157 -183 171c-8 1 -13 9 -13 18v19c0 12 10 17 20 17c103 0 245 -43 245 -225v-146c0 -45 45 -74 69 -78c8 -1 15 -7 15 -15v-31c0 -8 -7 -16 -15 -17c-24 -4 -69 -33 -69 -78v-146 c0 -182 -142 -224 -245 -224c-10 0 -20 7 -20 17v20c0 11 5 16 13 17c95 14 183 62 183 170v118z"></glyph><glyph glyph-name="asciitilde" unicode="~" d="M82 228c-7 6 -14 11 -21 17s-8 17 -2 24c0 0 54 92 133 92c46 0 80 -25 108 -45c14 -10 47 -34 73 -34c46 0 72 47 85 66c7 10 18 12 27 4l21 -17c7 -6 8 -17 2 -24c0 0 -54 -92 -135 -92c-44 0 -78 25 -104 43c-19 13 -45 36 -76 36c-45 0 -71 -47 -84 -66 c-7 -10 -18 -12 -27 -4z"></glyph><glyph glyph-name="uni00A0" unicode=" "></glyph><glyph glyph-name="Agrave" unicode="À" d="M24 0c-15 0 -23 13 -17 26l304 673c3 6 8 11 17 11h10c9 0 14 -5 17 -11l302 -673c6 -13 -2 -26 -17 -26h-40c-9 0 -15 6 -17 11l-74 165h-355l-73 -165c-2 -5 -8 -11 -17 -11h-40zM182 238h300c-49 109 -97 219 -146 328h-8zM400 781l-161 67c-8 3 -10 13 -6 21l18 36 c5 9 20 7 26 3l150 -84c6 -3 10 -11 6 -19l-10 -22c-4 -8 -9 -8 -23 -2z"></glyph><glyph glyph-name="Aacute" unicode="Á" d="M24 0c-15 0 -23 13 -17 26l304 673c3 6 8 11 17 11h10c9 0 14 -5 17 -11l302 -673c6 -13 -2 -26 -17 -26h-40c-9 0 -15 6 -17 11l-74 165h-355l-73 -165c-2 -5 -8 -11 -17 -11h-40zM182 238h300c-49 109 -97 219 -146 328h-8zM242 783l-10 22c-4 8 0 16 6 19l150 84 c6 4 21 6 26 -3l18 -36c4 -8 2 -18 -6 -21l-161 -67c-14 -6 -19 -6 -23 2z"></glyph><glyph glyph-name="Acircumflex" unicode="Â" d="M24 0c-15 0 -23 13 -17 26l304 673c3 6 8 11 17 11h10c9 0 14 -5 17 -11l302 -673c6 -13 -2 -26 -17 -26h-40c-9 0 -15 6 -17 11l-74 165h-355l-73 -165c-2 -5 -8 -11 -17 -11h-40zM182 238h300c-49 109 -97 219 -146 328h-8zM208 775l-14 18c-5 7 0 15 6 19l120 94 c4 3 9 4 13 4c6 0 9 -1 13 -4l120 -94c6 -4 11 -12 6 -19c-9 -12 -17 -36 -37 -22l-102 70l-102 -68c-12 -8 -18 -5 -23 2z"></glyph><glyph glyph-name="Atilde" unicode="Ã" d="M24 0c-15 0 -23 13 -17 26l304 673c3 6 8 11 17 11h10c9 0 14 -5 17 -11l302 -673c6 -13 -2 -26 -17 -26h-40c-9 0 -15 6 -17 11l-74 165h-355l-73 -165c-2 -5 -8 -11 -17 -11h-40zM182 238h300c-49 109 -97 219 -146 328h-8zM208 795l-18 9c-8 4 -7 15 -4 22 c9 18 26 84 92 84c60 0 79 -74 110 -74c28 0 40 34 45 51c3 10 12 13 23 8l16 -8c12 -6 6 -19 4 -26c-10 -29 -34 -81 -89 -81s-82 75 -110 75c-27 0 -37 -29 -44 -50c-3 -10 -12 -17 -25 -10z"></glyph><glyph glyph-name="Adieresis" unicode="Ä" d="M24 0c-15 0 -23 13 -17 26l304 673c3 6 8 11 17 11h10c9 0 14 -5 17 -11l302 -673c6 -13 -2 -26 -17 -26h-40c-9 0 -15 6 -17 11l-74 165h-355l-73 -165c-2 -5 -8 -11 -17 -11h-40zM182 238h300c-49 109 -97 219 -146 328h-8zM437 788c-28 0 -51 23 -51 51 c0 29 23 52 51 52c29 0 52 -23 52 -52c0 -28 -23 -51 -52 -51zM226 788c-28 0 -51 23 -51 51c0 29 23 52 51 52c29 0 52 -23 52 -52c0 -28 -23 -51 -52 -51z"></glyph><glyph glyph-name="Amacron" unicode="Ā" d="M24 0c-15 0 -23 13 -17 26l304 673c3 6 8 11 17 11h10c9 0 14 -5 17 -11l302 -673c6 -13 -2 -26 -17 -26h-40c-9 0 -15 6 -17 11l-74 165h-355l-73 -165c-2 -5 -8 -11 -17 -11h-40zM182 238h300c-49 109 -97 219 -146 328h-8zM204 821c-11 0 -19 8 -19 18v21 c0 11 8 19 19 19h256c11 0 19 -8 19 -19v-21c0 -10 -8 -18 -19 -18h-256z"></glyph><glyph glyph-name="Abreve" unicode="Ă" d="M24 0c-15 0 -23 13 -17 26l304 673c3 6 8 11 17 11h10c9 0 14 -5 17 -11l302 -673c6 -13 -2 -26 -17 -26h-40c-9 0 -15 6 -17 11l-74 165h-355l-73 -165c-2 -5 -8 -11 -17 -11h-40zM182 238h300c-49 109 -97 219 -146 328h-8zM332 771c-70 0 -126 49 -135 114 c-2 11 2 20 14 20h21c11 0 16 -8 19 -17c11 -38 41 -64 81 -64c37 0 68 29 79 64c4 11 10 17 19 17h23c11 0 16 -9 14 -20c-11 -65 -66 -114 -135 -114z"></glyph><glyph glyph-name="Aring" unicode="Å" d="M24 0c-15 0 -23 13 -17 26l304 673c3 6 8 11 17 11h10c9 0 14 -5 17 -11l302 -673c6 -13 -2 -26 -17 -26h-40c-9 0 -15 6 -17 11l-74 165h-355l-73 -165c-2 -5 -8 -11 -17 -11h-40zM182 238h300c-49 109 -97 219 -146 328h-8zM332 758c-61 0 -109 48 -109 109 s48 109 109 109c60 0 109 -48 109 -109s-49 -109 -109 -109zM332 806c32 0 59 29 59 61s-27 59 -59 59s-61 -27 -61 -59s29 -61 61 -61z"></glyph><glyph glyph-name="Aringacute" unicode="Ǻ" d="M242 903l-10 22c-4 8 0 16 6 19l150 84c6 4 21 6 26 -3l18 -36c4 -8 2 -18 -6 -21l-161 -67c-14 -6 -19 -6 -23 2zM24 0c-15 0 -23 13 -17 26l290 643c-43 14 -74 55 -74 104c0 61 48 109 109 109c60 0 109 -48 109 -109c0 -48 -31 -89 -73 -103l289 -644 c6 -13 -2 -26 -17 -26h-40c-9 0 -15 6 -17 11l-74 165h-355l-73 -165c-2 -5 -8 -11 -17 -11h-40zM332 712c32 0 59 29 59 61s-27 59 -59 59s-61 -27 -61 -59s29 -61 61 -61zM182 238h300l-146 328h-8z"></glyph><glyph glyph-name="Aogonek" unicode="Ą" d="M24 0c-15 0 -23 13 -17 26l304 673c3 6 8 11 17 11h10c9 0 14 -5 17 -11l300 -668c8 -18 1 -26 -16 -33c-42 -17 -103 -69 -103 -129c0 -33 19 -53 51 -53c29 0 55 20 63 26c7 6 15 4 16 -5l1 -34c1 -9 -2 -17 -12 -24c-14 -8 -47 -23 -83 -23c-65 0 -99 44 -99 100 c0 80 69 129 110 154c-1 1 0 0 -74 166h-355l-73 -165c-2 -5 -8 -11 -17 -11h-40zM182 238h300l-146 328h-8z"></glyph><glyph glyph-name="AE" unicode="Æ" d="M8 0c-15 0 -20 13 -12 26l401 643c13 20 21 31 47 31h378c11 0 19 -9 19 -19v-29c0 -10 -8 -19 -19 -19h-342v-244h293c10 0 19 -9 19 -19v-29c0 -11 -9 -19 -19 -19h-293v-255h342c11 0 19 -9 19 -19v-29c0 -10 -8 -19 -19 -19h-394c-11 0 -19 9 -19 19v157h-237 l-104 -165c-4 -5 -12 -11 -19 -11h-41zM208 238h201v328z"></glyph><glyph glyph-name="AEacute" unicode="Ǽ" d="M8 0c-15 0 -20 13 -12 26l401 643c13 20 21 31 47 31h378c11 0 19 -9 19 -19v-29c0 -10 -8 -19 -19 -19h-342v-244h293c10 0 19 -9 19 -19v-29c0 -11 -9 -19 -19 -19h-293v-255h342c11 0 19 -9 19 -19v-29c0 -10 -8 -19 -19 -19h-394c-11 0 -19 9 -19 19v157h-237 l-104 -165c-4 -5 -12 -11 -19 -11h-41zM208 238h201v328zM527 784l-10 22c-4 8 0 16 6 19l150 84c6 4 21 6 26 -3l18 -36c4 -8 2 -18 -6 -21l-161 -67c-14 -6 -19 -6 -23 2z"></glyph><glyph glyph-name="Cacute" unicode="Ć" d="M52 349c0 200 161 361 361 361c101 0 174 -35 242 -93c8 -8 9 -20 1 -28l-27 -27c-8 -10 -16 -9 -26 1c-52 45 -118 75 -191 75c-158 0 -279 -133 -279 -288c0 -154 121 -287 279 -287c87 0 138 30 191 75c10 8 18 7 26 -1l23 -23c8 -6 6 -20 -1 -27 c-66 -60 -149 -97 -238 -97c-200 0 -361 159 -361 359zM332 783l-10 22c-4 8 0 16 6 19l150 84c6 4 21 6 26 -3l18 -36c4 -8 2 -18 -6 -21l-161 -67c-14 -6 -19 -6 -23 2z"></glyph><glyph glyph-name="Ccircumflex" unicode="Ĉ" d="M52 349c0 200 161 361 361 361c101 0 174 -35 242 -93c8 -8 9 -20 1 -28l-27 -27c-8 -10 -16 -9 -26 1c-52 45 -118 75 -191 75c-158 0 -279 -133 -279 -288c0 -154 121 -287 279 -287c87 0 138 30 191 75c10 8 18 7 26 -1l23 -23c8 -6 6 -20 -1 -27 c-66 -60 -149 -97 -238 -97c-200 0 -361 159 -361 359zM287 775l-14 18c-5 7 0 15 6 19l120 94c4 3 9 4 13 4c6 0 9 -1 13 -4l120 -94c6 -4 11 -12 6 -19c-9 -12 -17 -36 -37 -22l-102 70l-102 -68c-12 -8 -18 -5 -23 2z"></glyph><glyph glyph-name="Ccaron" unicode="Č" d="M52 349c0 200 161 361 361 361c101 0 174 -35 242 -93c8 -8 9 -20 1 -28l-27 -27c-8 -10 -16 -9 -26 1c-52 45 -118 75 -191 75c-158 0 -279 -133 -279 -288c0 -154 121 -287 279 -287c87 0 138 30 191 75c10 8 18 7 26 -1l23 -23c8 -6 6 -20 -1 -27 c-66 -60 -149 -97 -238 -97c-200 0 -361 159 -361 359zM412 768c-4 0 -9 1 -13 4l-120 94c-6 4 -11 12 -6 19l14 18c5 7 11 10 23 2l102 -68l102 70c12 8 18 5 23 -2l14 -20c9 -12 -11 -23 -19 -29l-107 -84c-4 -3 -7 -4 -13 -4z"></glyph><glyph glyph-name="Cdotaccent" unicode="Ċ" d="M52 349c0 200 161 361 361 361c101 0 174 -35 242 -93c8 -8 9 -20 1 -28l-27 -27c-8 -10 -16 -9 -26 1c-52 45 -118 75 -191 75c-158 0 -279 -133 -279 -288c0 -154 121 -287 279 -287c87 0 138 30 191 75c10 8 18 7 26 -1l23 -23c8 -6 6 -20 -1 -27 c-66 -60 -149 -97 -238 -97c-200 0 -361 159 -361 359zM412 798c-30 0 -54 25 -54 54c0 32 24 56 54 56c31 0 55 -24 55 -56c0 -29 -24 -54 -55 -54z"></glyph><glyph glyph-name="Ccedilla" unicode="Ç" d="M52 349c0 200 161 361 361 361c101 0 174 -35 242 -93c8 -8 9 -20 1 -28l-27 -27c-8 -10 -16 -9 -26 1c-52 45 -123 75 -191 75c-158 0 -279 -133 -279 -288c0 -154 121 -287 279 -287c87 0 138 35 191 75c10 8 18 7 24 3l30 -27c8 -6 6 -20 -1 -27 c-66 -64 -148 -95 -234 -97l-36 -57c6 2 15 4 25 4c42 0 87 -23 87 -83c0 -57 -53 -94 -112 -94c-37 0 -65 12 -82 28c-6 6 -4 13 0 21l8 15c5 10 12 11 21 5c10 -10 27 -20 50 -20c34 0 56 14 56 41c0 31 -22 41 -53 41c-18 0 -38 -5 -48 -10c-7 -3 -15 6 -12 13l47 98 c-181 19 -321 170 -321 357z"></glyph><glyph glyph-name="Dcaron" unicode="Ď" d="M96 19v662c0 10 8 19 18 19h224c193 0 351 -157 351 -349c0 -194 -158 -351 -351 -351h-224c-10 0 -18 9 -18 19zM172 69h157c164 0 279 117 279 282c0 164 -115 281 -279 281h-157v-563zM335 768c-4 0 -9 1 -13 4l-120 94c-6 4 -11 12 -6 19l14 18c5 7 11 10 23 2 l102 -68l102 70c12 8 18 5 23 -2l14 -20c9 -12 -11 -23 -19 -29l-107 -84c-4 -3 -7 -4 -13 -4z"></glyph><glyph glyph-name="Dcroat" unicode="Đ" d="M96 19v305h-29c-10 0 -18 9 -18 19v7c0 10 8 19 18 19h29v312c0 10 8 19 18 19h224c193 0 351 -157 351 -349c0 -194 -158 -351 -351 -351h-224c-10 0 -18 9 -18 19zM172 69h150c164 0 283 117 283 282c0 164 -119 281 -283 281h-150v-263h211c11 0 19 -9 19 -19v-8 c0 -10 -8 -18 -19 -18h-211v-255z"></glyph><glyph glyph-name="Eth" unicode="Ð" d="M96 19v305h-29c-10 0 -18 9 -18 19v7c0 10 8 19 18 19h29v312c0 10 8 19 18 19h224c193 0 351 -157 351 -349c0 -194 -158 -351 -351 -351h-224c-10 0 -18 9 -18 19zM172 69h150c164 0 283 117 283 282c0 164 -119 281 -283 281h-150v-263h211c11 0 19 -9 19 -19v-8 c0 -10 -8 -18 -19 -18h-211v-255z"></glyph><glyph glyph-name="Egrave" unicode="È" d="M96 19v662c0 10 8 19 19 19h394c11 0 19 -9 19 -19v-29c0 -10 -8 -19 -19 -19h-336v-244h287c10 0 19 -9 19 -19v-29c0 -11 -9 -19 -19 -19h-287v-255h336c11 0 19 -9 19 -19v-29c0 -10 -8 -19 -19 -19h-394c-11 0 -19 9 -19 19zM388 781l-161 67c-8 3 -10 13 -6 21 l18 36c5 9 20 7 26 3l150 -84c6 -3 10 -11 6 -19l-10 -22c-4 -8 -9 -8 -23 -2z"></glyph><glyph glyph-name="Eacute" unicode="É" d="M96 19v662c0 10 8 19 19 19h394c11 0 19 -9 19 -19v-29c0 -10 -8 -19 -19 -19h-336v-244h287c10 0 19 -9 19 -19v-29c0 -11 -9 -19 -19 -19h-287v-255h336c11 0 19 -9 19 -19v-29c0 -10 -8 -19 -19 -19h-394c-11 0 -19 9 -19 19zM231 783l-10 22c-4 8 0 16 6 19l150 84 c6 4 21 6 26 -3l18 -36c4 -8 2 -18 -6 -21l-161 -67c-14 -6 -19 -6 -23 2z"></glyph><glyph glyph-name="Ecircumflex" unicode="Ê" d="M96 19v662c0 10 8 19 19 19h394c11 0 19 -9 19 -19v-29c0 -10 -8 -19 -19 -19h-336v-244h287c10 0 19 -9 19 -19v-29c0 -11 -9 -19 -19 -19h-287v-255h336c11 0 19 -9 19 -19v-29c0 -10 -8 -19 -19 -19h-394c-11 0 -19 9 -19 19zM186 775l-14 18c-5 7 0 15 6 19l120 94 c4 3 9 4 13 4c6 0 9 -1 13 -4l120 -94c6 -4 11 -12 6 -19c-9 -12 -17 -36 -37 -22l-102 70l-102 -68c-12 -8 -18 -5 -23 2z"></glyph><glyph glyph-name="Ecaron" unicode="Ě" d="M96 19v662c0 10 8 19 19 19h394c11 0 19 -9 19 -19v-29c0 -10 -8 -19 -19 -19h-336v-244h287c10 0 19 -9 19 -19v-29c0 -11 -9 -19 -19 -19h-287v-255h336c11 0 19 -9 19 -19v-29c0 -10 -8 -19 -19 -19h-394c-11 0 -19 9 -19 19zM311 768c-4 0 -9 1 -13 4l-120 94 c-6 4 -11 12 -6 19l14 18c5 7 11 10 23 2l102 -68l102 70c12 8 18 5 23 -2l14 -20c9 -12 -11 -23 -19 -29l-107 -84c-4 -3 -7 -4 -13 -4z"></glyph><glyph glyph-name="Edieresis" unicode="Ë" d="M96 19v662c0 10 8 19 19 19h394c11 0 19 -9 19 -19v-29c0 -10 -8 -19 -19 -19h-336v-244h287c10 0 19 -9 19 -19v-29c0 -11 -9 -19 -19 -19h-287v-255h336c11 0 19 -9 19 -19v-29c0 -10 -8 -19 -19 -19h-394c-11 0 -19 9 -19 19zM417 788c-28 0 -51 23 -51 51 c0 29 23 52 51 52c29 0 52 -23 52 -52c0 -28 -23 -51 -52 -51zM206 788c-28 0 -51 23 -51 51c0 29 23 52 51 52c29 0 52 -23 52 -52c0 -28 -23 -51 -52 -51z"></glyph><glyph glyph-name="Emacron" unicode="Ē" d="M96 19v662c0 10 8 19 19 19h394c11 0 19 -9 19 -19v-29c0 -10 -8 -19 -19 -19h-336v-244h287c10 0 19 -9 19 -19v-29c0 -11 -9 -19 -19 -19h-287v-255h336c11 0 19 -9 19 -19v-29c0 -10 -8 -19 -19 -19h-394c-11 0 -19 9 -19 19zM184 821c-11 0 -19 8 -19 18v21 c0 11 8 19 19 19h256c11 0 19 -8 19 -19v-21c0 -10 -8 -18 -19 -18h-256z"></glyph><glyph glyph-name="Ebreve" unicode="Ĕ" d="M96 19v662c0 10 8 19 19 19h394c11 0 19 -9 19 -19v-29c0 -10 -8 -19 -19 -19h-336v-244h287c10 0 19 -9 19 -19v-29c0 -11 -9 -19 -19 -19h-287v-255h336c11 0 19 -9 19 -19v-29c0 -10 -8 -19 -19 -19h-394c-11 0 -19 9 -19 19zM312 771c-70 0 -126 49 -135 114 c-2 11 2 20 14 20h21c11 0 16 -8 19 -17c11 -38 41 -64 81 -64c37 0 68 29 79 64c4 11 10 17 19 17h23c11 0 16 -9 14 -20c-11 -65 -66 -114 -135 -114z"></glyph><glyph glyph-name="Edotaccent" unicode="Ė" d="M96 19v662c0 10 8 19 19 19h394c11 0 19 -9 19 -19v-29c0 -10 -8 -19 -19 -19h-336v-244h287c10 0 19 -9 19 -19v-29c0 -11 -9 -19 -19 -19h-287v-255h336c11 0 19 -9 19 -19v-29c0 -10 -8 -19 -19 -19h-394c-11 0 -19 9 -19 19zM314 798c-30 0 -54 25 -54 54 c0 32 24 56 54 56c31 0 55 -24 55 -56c0 -29 -24 -54 -55 -54z"></glyph><glyph glyph-name="Eogonek" unicode="Ę" d="M96 19v662c0 10 8 19 19 19h394c11 0 19 -9 19 -19v-29c0 -10 -8 -19 -19 -19h-336v-244h287c10 0 19 -9 19 -19v-29c0 -11 -9 -19 -19 -19h-287v-255h336c11 0 19 -9 19 -19v-25c0 -12 -6 -18 -13 -22c-39 -23 -105 -71 -105 -132c0 -33 19 -53 51 -53c29 0 55 20 63 26 c7 6 15 4 16 -5l1 -34c1 -9 -2 -17 -12 -24c-14 -8 -47 -23 -83 -23c-65 0 -99 44 -99 100c0 72 56 117 98 144h-330c-11 0 -19 9 -19 19z"></glyph><glyph glyph-name="Gcircumflex" unicode="Ĝ" d="M52 349c0 200 161 361 361 361c101 0 174 -35 242 -93c8 -8 9 -20 1 -28c-9 -9 -20 -19 -28 -28c-9 -10 -15 -9 -26 1c-51 45 -123 78 -190 78c-158 0 -278 -132 -278 -287c0 -154 120 -289 278 -289c110 0 180 42 180 42v140h-115c-11 0 -19 8 -19 18v37 c0 11 8 19 19 19h173c10 0 18 -9 18 -19v-229c0 -5 -4 -13 -8 -16c0 0 -102 -66 -247 -66c-200 0 -361 159 -361 359zM287 775l-14 18c-5 7 0 15 6 19l120 94c4 3 9 4 13 4c6 0 9 -1 13 -4l120 -94c6 -4 11 -12 6 -19c-9 -12 -17 -36 -37 -22l-102 70l-102 -68 c-12 -8 -18 -5 -23 2z"></glyph><glyph glyph-name="Gbreve" unicode="Ğ" d="M52 349c0 200 161 361 361 361c101 0 174 -35 242 -93c8 -8 9 -20 1 -28c-9 -9 -20 -19 -28 -28c-9 -10 -15 -9 -26 1c-51 45 -123 78 -190 78c-158 0 -278 -132 -278 -287c0 -154 120 -289 278 -289c110 0 180 42 180 42v140h-115c-11 0 -19 8 -19 18v37 c0 11 8 19 19 19h173c10 0 18 -9 18 -19v-229c0 -5 -4 -13 -8 -16c0 0 -102 -66 -247 -66c-200 0 -361 159 -361 359zM413 771c-70 0 -126 49 -135 114c-2 11 2 20 14 20h21c11 0 16 -8 19 -17c11 -38 41 -64 81 -64c37 0 68 29 79 64c4 11 10 17 19 17h23 c11 0 16 -9 14 -20c-11 -65 -66 -114 -135 -114z"></glyph><glyph glyph-name="Gdotaccent" unicode="Ġ" d="M52 349c0 200 161 361 361 361c101 0 174 -35 242 -93c8 -8 9 -20 1 -28c-9 -9 -20 -19 -28 -28c-9 -10 -15 -9 -26 1c-51 45 -123 78 -190 78c-158 0 -278 -132 -278 -287c0 -154 120 -289 278 -289c110 0 180 42 180 42v140h-115c-11 0 -19 8 -19 18v37 c0 11 8 19 19 19h173c10 0 18 -9 18 -19v-229c0 -5 -4 -13 -8 -16c0 0 -102 -66 -247 -66c-200 0 -361 159 -361 359zM412 798c-30 0 -54 25 -54 54c0 32 24 56 54 56c31 0 55 -24 55 -56c0 -29 -24 -54 -55 -54z"></glyph><glyph glyph-name="Gcommaaccent" unicode="Ģ" d="M52 349c0 200 161 361 361 361c101 0 174 -35 242 -93c8 -8 9 -20 1 -28c-9 -9 -20 -19 -28 -28c-9 -10 -15 -9 -26 1c-51 45 -123 78 -190 78c-158 0 -278 -132 -278 -287c0 -154 120 -289 278 -289c110 0 180 42 180 42v140h-115c-11 0 -19 8 -19 18v37 c0 11 8 19 19 19h173c10 0 18 -9 18 -19v-229c0 -5 -4 -13 -8 -16c0 0 -102 -66 -247 -66c-200 0 -361 159 -361 359zM357 -119c0 30 23 48 54 48c41 0 69 -30 69 -85c0 -50 -23 -89 -46 -112c-5 -5 -9 -4 -15 0l-16 12c-7 7 -5 12 0 17c16 13 29 39 29 65c0 10 -2 17 -5 22 c-3 -3 -13 -7 -25 -7c-27 0 -45 17 -45 40z"></glyph><glyph glyph-name="Hcircumflex" unicode="Ĥ" d="M96 19v662c0 10 9 19 19 19h39c11 0 19 -9 19 -19v-292h406v292c0 10 8 19 19 19h39c10 0 19 -9 19 -19v-662c0 -10 -9 -19 -19 -19h-39c-11 0 -19 9 -19 19v303h-406v-303c0 -10 -8 -19 -19 -19h-39c-10 0 -19 9 -19 19zM253 775l-14 18c-5 7 0 15 6 19l120 94 c4 3 9 4 13 4c6 0 9 -1 13 -4l120 -94c6 -4 11 -12 6 -19c-9 -12 -17 -36 -37 -22l-102 70l-102 -68c-12 -8 -18 -5 -23 2z"></glyph><glyph glyph-name="Hbar" unicode="Ħ" d="M96 19v517h-22c-10 0 -18 9 -18 19v7c0 10 8 19 18 19h22v100c0 10 9 19 19 19h39c11 0 19 -9 19 -19v-100h406v100c0 10 8 19 19 19h39c10 0 19 -9 19 -19v-100h21c11 0 19 -9 19 -19v-8c0 -10 -8 -18 -19 -18h-21v-517c0 -10 -9 -19 -19 -19h-39c-11 0 -19 9 -19 19 v303h-406v-303c0 -10 -8 -19 -19 -19h-39c-10 0 -19 9 -19 19zM173 389h406v147h-406v-147z"></glyph><glyph glyph-name="Igrave" unicode="Ì" d="M96 19v662c0 10 9 19 19 19h40c10 0 19 -9 19 -19v-662c0 -10 -9 -19 -19 -19h-40c-10 0 -19 9 -19 19zM202 781l-161 67c-8 3 -10 13 -6 21l18 36c5 9 20 7 26 3l150 -84c6 -3 10 -11 6 -19l-10 -22c-4 -8 -9 -8 -23 -2z"></glyph><glyph glyph-name="Iacute" unicode="Í" d="M96 19v662c0 10 9 19 19 19h40c10 0 19 -9 19 -19v-662c0 -10 -9 -19 -19 -19h-40c-10 0 -19 9 -19 19zM45 783l-10 22c-4 8 0 16 6 19l150 84c6 4 21 6 26 -3l18 -36c4 -8 2 -18 -6 -21l-161 -67c-14 -6 -19 -6 -23 2z"></glyph><glyph glyph-name="Ibreve" unicode="Ĭ" d="M96 19v662c0 10 9 19 19 19h40c10 0 19 -9 19 -19v-662c0 -10 -9 -19 -19 -19h-40c-10 0 -19 9 -19 19zM136 771c-70 0 -126 49 -135 114c-2 11 2 20 14 20h21c11 0 16 -8 19 -17c11 -38 41 -64 81 -64c37 0 68 29 79 64c4 11 10 17 19 17h23c11 0 16 -9 14 -20 c-11 -65 -66 -114 -135 -114z"></glyph><glyph glyph-name="Icircumflex" unicode="Î" d="M96 19v662c0 10 9 19 19 19h40c10 0 19 -9 19 -19v-662c0 -10 -9 -19 -19 -19h-40c-10 0 -19 9 -19 19zM10 775l-14 18c-5 7 0 15 6 19l120 94c4 3 9 4 13 4c6 0 9 -1 13 -4l120 -94c6 -4 11 -12 6 -19c-9 -12 -17 -36 -37 -22l-102 70l-102 -68c-12 -8 -18 -5 -23 2z "></glyph><glyph glyph-name="Itilde" unicode="Ĩ" d="M96 19v662c0 10 9 19 19 19h40c10 0 19 -9 19 -19v-662c0 -10 -9 -19 -19 -19h-40c-10 0 -19 9 -19 19zM10 795l-18 9c-8 4 -7 15 -4 22c9 18 26 84 92 84c60 0 79 -74 110 -74c28 0 40 34 45 51c3 10 12 13 23 8l16 -8c12 -6 6 -19 4 -26c-10 -29 -34 -81 -89 -81 s-82 75 -110 75c-27 0 -37 -29 -44 -50c-3 -10 -12 -17 -25 -10z"></glyph><glyph glyph-name="Idieresis" unicode="Ï" d="M96 19v662c0 10 9 19 19 19h40c10 0 19 -9 19 -19v-662c0 -10 -9 -19 -19 -19h-40c-10 0 -19 9 -19 19zM241 788c-28 0 -51 23 -51 51c0 29 23 52 51 52c29 0 52 -23 52 -52c0 -28 -23 -51 -52 -51zM30 788c-28 0 -51 23 -51 51c0 29 23 52 51 52c29 0 52 -23 52 -52 c0 -28 -23 -51 -52 -51z"></glyph><glyph glyph-name="Imacron" unicode="Ī" d="M96 19v662c0 10 9 19 19 19h40c10 0 19 -9 19 -19v-662c0 -10 -9 -19 -19 -19h-40c-10 0 -19 9 -19 19zM8 821c-11 0 -19 8 -19 18v21c0 11 8 19 19 19h256c11 0 19 -8 19 -19v-21c0 -10 -8 -18 -19 -18h-256z"></glyph><glyph glyph-name="Idotaccent" unicode="İ" d="M96 19v662c0 10 9 19 19 19h40c10 0 19 -9 19 -19v-662c0 -10 -9 -19 -19 -19h-40c-10 0 -19 9 -19 19zM135 798c-30 0 -54 25 -54 54c0 32 24 56 54 56c31 0 55 -24 55 -56c0 -29 -24 -54 -55 -54z"></glyph><glyph glyph-name="Iogonek" unicode="Į" d="M96 19v662c0 10 9 19 19 19h40c10 0 19 -9 19 -19v-660c0 -9 -8 -18 -15 -21c-40 -20 -104 -70 -104 -131c0 -33 19 -53 51 -53c29 0 55 20 63 26c7 6 15 4 16 -5l1 -34c1 -9 -2 -17 -12 -24c-14 -8 -47 -23 -83 -23c-65 0 -99 44 -99 100c0 78 67 125 108 151 c-3 3 -4 7 -4 12z"></glyph><glyph glyph-name="Jcircumflex" unicode="Ĵ" d="M21 64c-5 8 -5 18 1 25l20 23c14 17 24 8 34 -3c17 -19 55 -52 106 -52c53 0 115 34 115 140v484c0 10 8 19 19 19h39c11 0 19 -9 19 -19v-482c0 -139 -84 -209 -192 -209c-96 0 -144 53 -161 74zM210 775l-14 18c-5 7 0 15 6 19l120 94c4 3 9 4 13 4c6 0 9 -1 13 -4 l120 -94c6 -4 11 -12 6 -19c-9 -12 -17 -36 -37 -22l-102 70l-102 -68c-12 -8 -18 -5 -23 2z"></glyph><glyph glyph-name="Kcommaaccent" unicode="Ķ" d="M96 24v652c0 13 10 24 24 24h29c13 0 24 -11 24 -24v-289l312 303c4 5 13 10 19 10h49c18 0 28 -20 12 -35l-316 -301l331 -333c7 -7 5 -31 -17 -31h-51c-7 0 -16 4 -18 7l-321 329v-312c0 -13 -11 -24 -24 -24h-29c-14 0 -24 11 -24 24zM253 -119c0 30 23 48 54 48 c41 0 69 -30 69 -85c0 -50 -23 -89 -46 -112c-5 -5 -9 -4 -15 0l-16 12c-7 7 -5 12 0 17c16 13 29 39 29 65c0 10 -2 17 -5 22c-3 -3 -13 -7 -25 -7c-27 0 -45 17 -45 40z"></glyph><glyph glyph-name="Lacute" unicode="Ĺ" d="M96 19v662c0 10 8 19 19 19h39c10 0 19 -9 19 -19v-614h288c11 0 19 -9 19 -19v-29c0 -10 -8 -19 -19 -19h-346c-11 0 -19 9 -19 19zM45 783l-10 22c-4 8 0 16 6 19l150 84c6 4 21 6 26 -3l18 -36c4 -8 2 -18 -6 -21l-161 -67c-14 -6 -19 -6 -23 2z"></glyph><glyph glyph-name="Lcaron" unicode="Ľ" d="M96 19v662c0 10 8 19 19 19h39c10 0 19 -9 19 -19v-614h288c11 0 19 -9 19 -19v-29c0 -10 -8 -19 -19 -19h-346c-11 0 -19 9 -19 19zM334 662c0 30 23 48 54 48c41 0 69 -30 69 -85c0 -50 -23 -89 -46 -112c-5 -5 -9 -4 -15 0l-16 12c-7 7 -5 12 0 17c16 13 29 39 29 65 c0 10 -2 17 -5 22c-3 -3 -13 -7 -25 -7c-27 0 -45 17 -45 40z"></glyph><glyph glyph-name="Lcommaaccent" unicode="Ļ" d="M96 19v662c0 10 8 19 19 19h39c10 0 19 -9 19 -19v-614h288c11 0 19 -9 19 -19v-29c0 -10 -8 -19 -19 -19h-346c-11 0 -19 9 -19 19zM235 -119c0 30 23 48 54 48c41 0 69 -30 69 -85c0 -50 -23 -89 -46 -112c-5 -5 -9 -4 -15 0l-16 12c-7 7 -5 12 0 17c16 13 29 39 29 65 c0 10 -2 17 -5 22c-3 -3 -13 -7 -25 -7c-27 0 -45 17 -45 40z"></glyph><glyph glyph-name="Lslash" unicode="Ł" d="M96 19v292l-21 -12c-11 -7 -20 -2 -25 7l-4 8c-4 8 -2 19 7 24l43 24v319c0 10 8 19 19 19h39c10 0 19 -9 19 -19v-274l111 64c10 6 22 1 26 -7l3 -6c5 -9 2 -20 -7 -26l-133 -76v-289h288c11 0 19 -9 19 -19v-29c0 -10 -8 -19 -19 -19h-346c-11 0 -19 9 -19 19z"></glyph><glyph glyph-name="Ldot" unicode="Ŀ" d="M96 19v662c0 10 8 19 19 19h39c10 0 19 -9 19 -19v-614h288c11 0 19 -9 19 -19v-29c0 -10 -8 -19 -19 -19h-346c-11 0 -19 9 -19 19zM438 292c-31 0 -57 26 -57 57c0 32 26 57 57 57c32 0 57 -25 57 -57c0 -31 -25 -57 -57 -57z"></glyph><glyph glyph-name="Nacute" unicode="Ń" d="M96 19v673c0 10 9 18 19 18h15c7 0 12 -2 16 -8l445 -554h2v533c0 10 8 19 19 19h35c10 0 19 -9 19 -19v-673c0 -10 -9 -18 -19 -18h-8c-7 0 -12 2 -16 8l-453 565h-1v-544c0 -10 -8 -19 -19 -19h-35c-10 0 -19 9 -19 19zM303 783l-10 22c-4 8 0 16 6 19l150 84 c6 4 21 6 26 -3l18 -36c4 -8 2 -18 -6 -21l-161 -67c-14 -6 -19 -6 -23 2z"></glyph><glyph glyph-name="Ncaron" unicode="Ň" d="M96 19v673c0 10 9 18 19 18h15c7 0 12 -2 16 -8l445 -554h2v533c0 10 8 19 19 19h35c10 0 19 -9 19 -19v-673c0 -10 -9 -18 -19 -18h-8c-7 0 -12 2 -16 8l-453 565h-1v-544c0 -10 -8 -19 -19 -19h-35c-10 0 -19 9 -19 19zM386 768c-4 0 -9 1 -13 4l-120 94 c-6 4 -11 12 -6 19l14 18c5 7 11 10 23 2l102 -68l102 70c12 8 18 5 23 -2l14 -20c9 -12 -11 -23 -19 -29l-107 -84c-4 -3 -7 -4 -13 -4z"></glyph><glyph glyph-name="Ntilde" unicode="Ñ" d="M96 19v673c0 10 9 18 19 18h15c7 0 12 -2 16 -8l445 -554h2v533c0 10 8 19 19 19h35c10 0 19 -9 19 -19v-673c0 -10 -9 -18 -19 -18h-8c-7 0 -12 2 -16 8l-453 565h-1v-544c0 -10 -8 -19 -19 -19h-35c-10 0 -19 9 -19 19zM268 795l-18 9c-8 4 -7 15 -4 22 c9 18 26 84 92 84c60 0 79 -74 110 -74c28 0 40 34 45 51c3 10 12 13 23 8l16 -8c12 -6 6 -19 4 -26c-10 -29 -34 -81 -89 -81s-82 75 -110 75c-27 0 -37 -29 -44 -50c-3 -10 -12 -17 -25 -10z"></glyph><glyph glyph-name="Ncommaaccent" unicode="Ņ" d="M96 19v673c0 10 9 18 19 18h15c7 0 12 -2 16 -8l445 -554h2v533c0 10 8 19 19 19h35c10 0 19 -9 19 -19v-673c0 -10 -9 -18 -19 -18h-8c-7 0 -12 2 -16 8l-453 565h-1v-544c0 -10 -8 -19 -19 -19h-35c-10 0 -19 9 -19 19zM329 -119c0 30 23 48 54 48c41 0 69 -30 69 -85 c0 -50 -23 -89 -46 -112c-5 -5 -9 -4 -15 0l-16 12c-7 7 -5 12 0 17c16 13 29 39 29 65c0 10 -2 17 -5 22c-3 -3 -13 -7 -25 -7c-27 0 -45 17 -45 40z"></glyph><glyph glyph-name="Ograve" unicode="Ò" d="M52 349c0 200 159 361 359 361s360 -161 360 -361s-160 -359 -360 -359s-359 159 -359 359zM122 349c0 -159 130 -289 289 -289s290 130 290 289s-131 291 -290 291s-289 -132 -289 -291zM488 781l-161 67c-8 3 -10 13 -6 21l18 36c5 9 20 7 26 3l150 -84 c6 -3 10 -11 6 -19l-10 -22c-4 -8 -9 -8 -23 -2z"></glyph><glyph glyph-name="Oacute" unicode="Ó" d="M52 349c0 200 159 361 359 361s360 -161 360 -361s-160 -359 -360 -359s-359 159 -359 359zM122 349c0 -159 130 -289 289 -289s290 130 290 289s-131 291 -290 291s-289 -132 -289 -291zM331 783l-10 22c-4 8 0 16 6 19l150 84c6 4 21 6 26 -3l18 -36c4 -8 2 -18 -6 -21 l-161 -67c-14 -6 -19 -6 -23 2z"></glyph><glyph glyph-name="Ocircumflex" unicode="Ô" d="M52 349c0 200 159 361 359 361s360 -161 360 -361s-160 -359 -360 -359s-359 159 -359 359zM122 349c0 -159 130 -289 289 -289s290 130 290 289s-131 291 -290 291s-289 -132 -289 -291zM286 775l-14 18c-5 7 0 15 6 19l120 94c4 3 9 4 13 4c6 0 9 -1 13 -4l120 -94 c6 -4 11 -12 6 -19c-9 -12 -17 -36 -37 -22l-102 70l-102 -68c-12 -8 -18 -5 -23 2z"></glyph><glyph glyph-name="Otilde" unicode="Õ" d="M52 349c0 200 159 361 359 361s360 -161 360 -361s-160 -359 -360 -359s-359 159 -359 359zM122 349c0 -159 130 -289 289 -289s290 130 290 289s-131 291 -290 291s-289 -132 -289 -291zM286 795l-18 9c-8 4 -7 15 -4 22c9 18 26 84 92 84c60 0 79 -74 110 -74 c28 0 40 34 45 51c3 10 12 13 23 8l16 -8c12 -6 6 -19 4 -26c-10 -29 -34 -81 -89 -81s-82 75 -110 75c-27 0 -37 -29 -44 -50c-3 -10 -12 -17 -25 -10z"></glyph><glyph glyph-name="Odieresis" unicode="Ö" d="M52 349c0 200 159 361 359 361s360 -161 360 -361s-160 -359 -360 -359s-359 159 -359 359zM122 349c0 -159 130 -289 289 -289s290 130 290 289s-131 291 -290 291s-289 -132 -289 -291zM517 788c-28 0 -51 23 -51 51c0 29 23 52 51 52c29 0 52 -23 52 -52 c0 -28 -23 -51 -52 -51zM306 788c-28 0 -51 23 -51 51c0 29 23 52 51 52c29 0 52 -23 52 -52c0 -28 -23 -51 -52 -51z"></glyph><glyph glyph-name="Omacron" unicode="Ō" d="M52 349c0 200 159 361 359 361s360 -161 360 -361s-160 -359 -360 -359s-359 159 -359 359zM122 349c0 -159 130 -289 289 -289s290 130 290 289s-131 291 -290 291s-289 -132 -289 -291zM284 821c-11 0 -19 8 -19 18v21c0 11 8 19 19 19h256c11 0 19 -8 19 -19v-21 c0 -10 -8 -18 -19 -18h-256z"></glyph><glyph glyph-name="Obreve" unicode="Ŏ" d="M52 349c0 200 159 361 359 361s360 -161 360 -361s-160 -359 -360 -359s-359 159 -359 359zM122 349c0 -159 130 -289 289 -289s290 130 290 289s-131 291 -290 291s-289 -132 -289 -291zM412 771c-70 0 -126 49 -135 114c-2 11 2 20 14 20h21c11 0 16 -8 19 -17 c11 -38 41 -64 81 -64c37 0 68 29 79 64c4 11 10 17 19 17h23c11 0 16 -9 14 -20c-11 -65 -66 -114 -135 -114z"></glyph><glyph glyph-name="Ohungarumlaut" unicode="Ő" d="M52 349c0 200 159 361 359 361s360 -161 360 -361s-160 -359 -360 -359s-359 159 -359 359zM122 349c0 -159 130 -289 289 -289s290 130 290 289s-131 291 -290 291s-289 -132 -289 -291zM508 769c-10 0 -22 9 -19 19l50 141c3 10 9 19 19 19h39c19 0 25 -12 18 -25 l-78 -139c-4 -8 -11 -15 -18 -15h-11zM342 769c-10 0 -22 9 -19 19l50 141c3 10 9 19 19 19h39c19 0 25 -12 18 -25l-78 -139c-4 -8 -11 -15 -18 -15h-11z"></glyph><glyph glyph-name="Oslash" unicode="Ø" d="M82 22c-7 7 -8 19 -1 26l61 61c-56 64 -90 147 -90 240c0 200 159 361 359 361c92 0 176 -35 240 -91l63 63c7 7 19 7 26 0l5 -5c7 -7 7 -19 0 -26l-63 -63c55 -64 89 -148 89 -239c0 -200 -160 -359 -360 -359c-92 0 -175 33 -238 88l-61 -61c-7 -7 -19 -6 -26 1z M193 160l408 409c-51 44 -118 71 -190 71c-159 0 -289 -132 -289 -291c0 -72 27 -138 71 -189zM224 129c50 -43 116 -69 187 -69c159 0 290 130 290 289c0 71 -26 138 -70 188z"></glyph><glyph glyph-name="Oslashacute" unicode="Ǿ" d="M82 22c-7 7 -8 19 -1 26l61 61c-56 64 -90 147 -90 240c0 200 159 361 359 361c92 0 176 -35 240 -91l63 63c7 7 19 7 26 0l5 -5c7 -7 7 -19 0 -26l-63 -63c55 -64 89 -148 89 -239c0 -200 -160 -359 -360 -359c-92 0 -175 33 -238 88l-61 -61c-7 -7 -19 -6 -26 1z M193 160l408 409c-51 44 -118 71 -190 71c-159 0 -289 -132 -289 -291c0 -72 27 -138 71 -189zM224 129c50 -43 116 -69 187 -69c159 0 290 130 290 289c0 71 -26 138 -70 188zM331 783l-10 22c-4 8 0 16 6 19l150 84c6 4 21 6 26 -3l18 -36c4 -8 2 -18 -6 -21l-161 -67 c-14 -6 -19 -6 -23 2z"></glyph><glyph glyph-name="OE" unicode="Œ" d="M52 349c0 200 159 361 359 361c45 0 86 -10 86 -10h394c11 0 19 -9 19 -19v-29c0 -10 -8 -19 -19 -19h-336v-244h287c10 0 19 -9 19 -19v-29c0 -11 -9 -19 -19 -19h-287v-255h336c11 0 19 -9 19 -19v-29c0 -10 -8 -19 -19 -19h-394s-41 -10 -86 -10 c-200 0 -359 159 -359 359zM122 349c0 -159 130 -289 289 -289c23 0 45 2 67 7v564c-22 5 -44 8 -67 8c-159 0 -289 -131 -289 -290z"></glyph><glyph glyph-name="Racute" unicode="Ŕ" d="M96 19v662c0 10 8 19 19 19h259c120 0 218 -94 218 -213c0 -92 -61 -169 -148 -204l137 -254c7 -13 0 -29 -17 -29h-48c-12 0 -17 5 -22 15l-130 259h-191v-255c0 -10 -9 -19 -19 -19h-39c-11 0 -19 9 -19 19zM175 340h194c77 0 144 64 144 146c0 76 -67 141 -144 141 h-194v-287zM220 783l-10 22c-4 8 0 16 6 19l150 84c6 4 21 6 26 -3l18 -36c4 -8 2 -18 -6 -21l-161 -67c-14 -6 -19 -6 -23 2z"></glyph><glyph glyph-name="Rcaron" unicode="Ř" d="M96 19v662c0 10 8 19 19 19h259c120 0 218 -94 218 -213c0 -92 -61 -169 -148 -204l137 -254c7 -13 0 -29 -17 -29h-48c-12 0 -17 5 -22 15l-130 259h-191v-255c0 -10 -9 -19 -19 -19h-39c-11 0 -19 9 -19 19zM175 340h194c77 0 144 64 144 146c0 76 -67 141 -144 141 h-194v-287zM300 768c-4 0 -9 1 -13 4l-120 94c-6 4 -11 12 -6 19l14 18c5 7 11 10 23 2l102 -68l102 70c12 8 18 5 23 -2l14 -20c9 -12 -11 -23 -19 -29l-107 -84c-4 -3 -7 -4 -13 -4z"></glyph><glyph glyph-name="Rcommaaccent" unicode="Ŗ" d="M96 19v662c0 10 8 19 19 19h259c120 0 218 -94 218 -213c0 -92 -61 -169 -148 -204l137 -254c7 -13 0 -29 -17 -29h-48c-12 0 -17 5 -22 15l-130 259h-191v-255c0 -10 -9 -19 -19 -19h-39c-11 0 -19 9 -19 19zM175 340h194c77 0 144 64 144 146c0 76 -67 141 -144 141 h-194v-287zM256 -119c0 30 23 48 54 48c41 0 69 -30 69 -85c0 -50 -23 -89 -46 -112c-5 -5 -9 -4 -15 0l-16 12c-7 7 -5 12 0 17c16 13 29 39 29 65c0 10 -2 17 -5 22c-3 -3 -13 -7 -25 -7c-27 0 -45 17 -45 40z"></glyph><glyph glyph-name="Sacute" unicode="Ś" d="M63 71c-8 7 -20 16 -6 34l15 19c10 13 18 18 32 6c7 -6 83 -73 172 -73c81 0 134 51 134 114c0 69 -60 109 -175 158c-110 47 -176 89 -176 203c0 68 54 178 213 178c98 0 171 -51 171 -51c6 -3 17 -15 6 -34l-10 -17c-8 -14 -19 -14 -35 -5c-42 25 -77 40 -133 40 c-106 0 -138 -68 -138 -110c0 -71 51 -102 135 -137c135 -55 222 -106 222 -222c0 -104 -99 -184 -216 -184c-118 0 -198 69 -211 81zM193 783l-10 22c-4 8 0 16 6 19l150 84c6 4 21 6 26 -3l18 -36c4 -8 2 -18 -6 -21l-161 -67c-14 -6 -19 -6 -23 2z"></glyph><glyph glyph-name="Scircumflex" unicode="Ŝ" d="M63 71c-8 7 -20 16 -6 34l15 19c10 13 18 18 32 6c7 -6 83 -73 172 -73c81 0 134 51 134 114c0 69 -60 109 -175 158c-110 47 -176 89 -176 203c0 68 54 178 213 178c98 0 171 -51 171 -51c6 -3 17 -15 6 -34l-10 -17c-8 -14 -19 -14 -35 -5c-42 25 -77 40 -133 40 c-106 0 -138 -68 -138 -110c0 -71 51 -102 135 -137c135 -55 222 -106 222 -222c0 -104 -99 -184 -216 -184c-118 0 -198 69 -211 81zM148 775l-14 18c-5 7 0 15 6 19l120 94c4 3 9 4 13 4c6 0 9 -1 13 -4l120 -94c6 -4 11 -12 6 -19c-9 -12 -17 -36 -37 -22l-102 70 l-102 -68c-12 -8 -18 -5 -23 2z"></glyph><glyph glyph-name="Scaron" unicode="Š" d="M63 71c-8 7 -20 16 -6 34l15 19c10 13 18 18 32 6c7 -6 83 -73 172 -73c81 0 134 51 134 114c0 69 -60 109 -175 158c-110 47 -176 89 -176 203c0 68 54 178 213 178c98 0 171 -51 171 -51c6 -3 17 -15 6 -34l-10 -17c-8 -14 -19 -14 -35 -5c-42 25 -77 40 -133 40 c-106 0 -138 -68 -138 -110c0 -71 51 -102 135 -137c135 -55 222 -106 222 -222c0 -104 -99 -184 -216 -184c-118 0 -198 69 -211 81zM273 768c-4 0 -9 1 -13 4l-120 94c-6 4 -11 12 -6 19l14 18c5 7 11 10 23 2l102 -68l102 70c12 8 18 5 23 -2l14 -20 c9 -12 -11 -23 -19 -29l-107 -84c-4 -3 -7 -4 -13 -4z"></glyph><glyph glyph-name="Scedilla" unicode="Ş" d="M63 71c-8 7 -18 15 -6 34l15 19c10 13 21 21 35 9c7 -6 80 -76 169 -76c81 0 134 51 134 110c0 69 -60 109 -175 158c-110 47 -176 93 -176 207c0 68 54 178 213 178c98 0 171 -51 171 -51c6 -3 18 -15 6 -34l-12 -19c-9 -14 -19 -18 -35 -9c-7 4 -70 46 -131 46 c-106 0 -138 -68 -138 -110c0 -67 51 -106 135 -141c135 -55 222 -106 222 -222c0 -101 -93 -175 -204 -180l-37 -57c6 2 15 4 25 4c42 0 88 -23 88 -83c0 -57 -54 -94 -113 -94c-37 0 -65 12 -82 28c-6 6 -4 13 0 21l8 15c5 10 12 11 21 5c10 -10 27 -20 50 -20 c34 0 56 14 56 41c0 31 -22 41 -53 41c-18 0 -38 -5 -48 -10c-7 -3 -15 6 -12 13l48 99c-98 11 -163 67 -174 78z"></glyph><glyph glyph-name="Scommaaccent" unicode="Ș" d="M63 71c-8 7 -20 16 -6 34l15 19c10 13 18 18 32 6c7 -6 83 -73 172 -73c81 0 134 51 134 114c0 69 -60 109 -175 158c-110 47 -176 89 -176 203c0 68 54 178 213 178c98 0 171 -51 171 -51c6 -3 17 -15 6 -34l-10 -17c-8 -14 -19 -14 -35 -5c-42 25 -77 40 -133 40 c-106 0 -138 -68 -138 -110c0 -71 51 -102 135 -137c135 -55 222 -106 222 -222c0 -104 -99 -184 -216 -184c-118 0 -198 69 -211 81zM222 -119c0 30 23 48 54 48c41 0 69 -30 69 -85c0 -50 -23 -89 -46 -112c-5 -5 -9 -4 -15 0l-16 12c-7 7 -5 12 0 17c16 13 29 39 29 65 c0 10 -2 17 -5 22c-3 -3 -13 -7 -25 -7c-27 0 -45 17 -45 40z"></glyph><glyph glyph-name="Tcaron" unicode="Ť" d="M219 19v614h-174c-11 0 -19 9 -19 19v29c0 10 8 19 19 19h424c11 0 19 -9 19 -19v-29c0 -10 -8 -19 -19 -19h-174v-614c0 -10 -9 -19 -19 -19h-38c-10 0 -19 9 -19 19zM256 768c-4 0 -9 1 -13 4l-120 94c-6 4 -11 12 -6 19l14 18c5 7 11 10 23 2l102 -68l102 70 c12 8 18 5 23 -2l14 -20c9 -12 -11 -23 -19 -29l-107 -84c-4 -3 -7 -4 -13 -4z"></glyph><glyph glyph-name="Tcommaaccent" unicode="Ţ" d="M219 19v614h-174c-11 0 -19 9 -19 19v29c0 10 8 19 19 19h424c11 0 19 -9 19 -19v-29c0 -10 -8 -19 -19 -19h-174v-614c0 -8 -5 -15 -12 -18l-44 -68c6 2 15 4 25 4c42 0 84 -23 84 -83c0 -57 -50 -94 -109 -94c-37 0 -65 12 -82 28c-6 6 -4 13 0 21l8 15 c5 10 12 11 21 5c10 -10 27 -20 50 -20c34 0 56 18 56 45c0 31 -22 45 -53 45c-18 0 -34 -5 -44 -10c-7 -3 -15 6 -12 13l48 99c-7 3 -12 10 -12 18z"></glyph><glyph glyph-name="uni021A" unicode="Ț" d="M219 19v614h-174c-11 0 -19 9 -19 19v29c0 10 8 19 19 19h424c11 0 19 -9 19 -19v-29c0 -10 -8 -19 -19 -19h-174v-614c0 -10 -9 -19 -19 -19h-38c-10 0 -19 9 -19 19zM202 -119c0 30 23 48 54 48c41 0 69 -30 69 -85c0 -50 -23 -89 -46 -112c-5 -5 -9 -4 -15 0l-16 12 c-7 7 -5 12 0 17c16 13 29 39 29 65c0 10 -2 17 -5 22c-3 -3 -13 -7 -25 -7c-27 0 -45 17 -45 40z"></glyph><glyph glyph-name="Tbar" unicode="Ŧ" d="M219 19v276h-104c-10 0 -18 9 -18 19v7c0 10 8 19 18 19h104v293h-174c-11 0 -19 9 -19 19v29c0 10 8 19 19 19h424c11 0 19 -9 19 -19v-29c0 -10 -8 -19 -19 -19h-174v-293h104c11 0 19 -9 19 -19v-8c0 -10 -8 -18 -19 -18h-104v-276c0 -10 -9 -19 -19 -19h-38 c-10 0 -19 9 -19 19z"></glyph><glyph glyph-name="Thorn" unicode="Þ" d="M96 19v661c0 10 8 20 19 20h38c10 0 19 -9 19 -19v-107h164c123 0 224 -100 224 -221c0 -124 -101 -225 -223 -225h-165v-109c0 -10 -9 -19 -19 -19h-38c-11 0 -19 9 -19 19zM172 202h159c82 0 152 67 152 153c0 81 -70 143 -152 143h-159v-296z"></glyph><glyph glyph-name="Ugrave" unicode="Ù" d="M89 254v427c0 10 9 19 19 19h38c11 0 19 -9 19 -19v-421c0 -114 71 -199 188 -199c118 0 190 83 190 197v423c0 10 8 19 19 19h38c10 0 19 -9 19 -19v-427c0 -152 -108 -264 -266 -264c-157 0 -264 112 -264 264zM419 781l-161 67c-8 3 -10 13 -6 21l18 36c5 9 20 7 26 3 l150 -84c6 -3 10 -11 6 -19l-10 -22c-4 -8 -9 -8 -23 -2z"></glyph><glyph glyph-name="Uacute" unicode="Ú" d="M89 254v427c0 10 9 19 19 19h38c11 0 19 -9 19 -19v-421c0 -114 71 -199 188 -199c118 0 190 83 190 197v423c0 10 8 19 19 19h38c10 0 19 -9 19 -19v-427c0 -152 -108 -264 -266 -264c-157 0 -264 112 -264 264zM262 783l-10 22c-4 8 0 16 6 19l150 84c6 4 21 6 26 -3 l18 -36c4 -8 2 -18 -6 -21l-161 -67c-14 -6 -19 -6 -23 2z"></glyph><glyph glyph-name="Ucircumflex" unicode="Û" d="M89 254v427c0 10 9 19 19 19h38c11 0 19 -9 19 -19v-421c0 -114 71 -199 188 -199c118 0 190 83 190 197v423c0 10 8 19 19 19h38c10 0 19 -9 19 -19v-427c0 -152 -108 -264 -266 -264c-157 0 -264 112 -264 264zM224 775l-14 18c-5 7 0 15 6 19l120 94c4 3 9 4 13 4 c6 0 9 -1 13 -4l120 -94c6 -4 11 -12 6 -19c-9 -12 -17 -36 -37 -22l-102 70l-102 -68c-12 -8 -18 -5 -23 2z"></glyph><glyph glyph-name="Utilde" unicode="Ũ" d="M89 254v427c0 10 9 19 19 19h38c11 0 19 -9 19 -19v-421c0 -114 71 -199 188 -199c118 0 190 83 190 197v423c0 10 8 19 19 19h38c10 0 19 -9 19 -19v-427c0 -152 -108 -264 -266 -264c-157 0 -264 112 -264 264zM233 795l-18 9c-8 4 -7 15 -4 22c9 18 26 84 92 84 c60 0 79 -74 110 -74c28 0 40 34 45 51c3 10 12 13 23 8l16 -8c12 -6 6 -19 4 -26c-10 -29 -34 -81 -89 -81s-82 75 -110 75c-27 0 -37 -29 -44 -50c-3 -10 -12 -17 -25 -10z"></glyph><glyph glyph-name="Udieresis" unicode="Ü" d="M89 254v427c0 10 9 19 19 19h38c11 0 19 -9 19 -19v-421c0 -114 71 -199 188 -199c118 0 190 83 190 197v423c0 10 8 19 19 19h38c10 0 19 -9 19 -19v-427c0 -152 -108 -264 -266 -264c-157 0 -264 112 -264 264zM458 788c-28 0 -51 23 -51 51c0 29 23 52 51 52 c29 0 52 -23 52 -52c0 -28 -23 -51 -52 -51zM247 788c-28 0 -51 23 -51 51c0 29 23 52 51 52c29 0 52 -23 52 -52c0 -28 -23 -51 -52 -51z"></glyph><glyph glyph-name="Umacron" unicode="Ū" d="M89 254v427c0 10 9 19 19 19h38c11 0 19 -9 19 -19v-421c0 -114 71 -199 188 -199c118 0 190 83 190 197v423c0 10 8 19 19 19h38c10 0 19 -9 19 -19v-427c0 -152 -108 -264 -266 -264c-157 0 -264 112 -264 264zM225 821c-11 0 -19 8 -19 18v21c0 11 8 19 19 19h256 c11 0 19 -8 19 -19v-21c0 -10 -8 -18 -19 -18h-256z"></glyph><glyph glyph-name="Ubreve" unicode="Ŭ" d="M89 254v427c0 10 9 19 19 19h38c11 0 19 -9 19 -19v-421c0 -114 71 -199 188 -199c118 0 190 83 190 197v423c0 10 8 19 19 19h38c10 0 19 -9 19 -19v-427c0 -152 -108 -264 -266 -264c-157 0 -264 112 -264 264zM352 771c-70 0 -126 49 -135 114c-2 11 2 20 14 20h21 c11 0 16 -8 19 -17c11 -38 41 -64 81 -64c37 0 68 29 79 64c4 11 10 17 19 17h23c11 0 16 -9 14 -20c-11 -65 -66 -114 -135 -114z"></glyph><glyph glyph-name="Uring" unicode="Ů" d="M89 254v427c0 10 9 19 19 19h38c11 0 19 -9 19 -19v-421c0 -114 71 -199 188 -199c118 0 190 83 190 197v423c0 10 8 19 19 19h38c10 0 19 -9 19 -19v-427c0 -152 -108 -264 -266 -264c-157 0 -264 112 -264 264zM352 758c-61 0 -109 48 -109 109s48 109 109 109 c60 0 109 -48 109 -109s-49 -109 -109 -109zM352 806c32 0 59 29 59 61s-27 59 -59 59s-61 -27 -61 -59s29 -61 61 -61z"></glyph><glyph glyph-name="Uhungarumlaut" unicode="Ű" d="M89 254v427c0 10 9 19 19 19h38c11 0 19 -9 19 -19v-421c0 -114 71 -199 188 -199c118 0 190 83 190 197v423c0 10 8 19 19 19h38c10 0 19 -9 19 -19v-427c0 -152 -108 -264 -266 -264c-157 0 -264 112 -264 264zM441 769c-10 0 -22 9 -19 19l50 141c3 10 9 19 19 19h39 c19 0 25 -12 18 -25l-78 -139c-4 -8 -11 -15 -18 -15h-11zM275 769c-10 0 -22 9 -19 19l50 141c3 10 9 19 19 19h39c19 0 25 -12 18 -25l-78 -139c-4 -8 -11 -15 -18 -15h-11z"></glyph><glyph glyph-name="Uogonek" unicode="Ų" d="M89 258v423c0 10 9 19 19 19h38c11 0 19 -9 19 -19v-417c0 -114 71 -203 188 -203c118 0 190 87 190 201v419c0 10 8 19 19 19h38c10 0 19 -9 19 -19v-423c0 -128 -77 -231 -195 -259c-39 -24 -101 -71 -101 -130c0 -33 19 -53 51 -53c29 0 55 20 63 26c7 6 15 4 16 -5 l1 -34c1 -9 -2 -17 -12 -24c-14 -8 -47 -23 -83 -23c-65 0 -99 44 -99 100c0 63 44 106 83 134c-152 5 -254 119 -254 268z"></glyph><glyph glyph-name="Wacute" unicode="Ẃ" d="M218 4l-189 672c-4 14 4 24 18 24h42c8 0 16 -7 18 -14l139 -518h4l167 531c2 6 8 11 17 11h18c8 0 15 -5 17 -11l170 -531h4l136 518c2 7 10 14 18 14h42c14 0 22 -10 18 -24l-189 -672c-2 -8 -10 -14 -18 -14h-16c-7 0 -14 5 -17 11l-173 541h-5l-170 -541 c-3 -6 -10 -11 -17 -11h-16c-8 0 -16 6 -18 14zM352 783l-10 22c-4 8 0 16 6 19l150 84c6 4 21 6 26 -3l18 -36c4 -8 2 -18 -6 -21l-161 -67c-14 -6 -19 -6 -23 2z"></glyph><glyph glyph-name="Wcircumflex" unicode="Ŵ" d="M218 4l-189 672c-4 14 4 24 18 24h42c8 0 16 -7 18 -14l139 -518h4l167 531c2 6 8 11 17 11h18c8 0 15 -5 17 -11l170 -531h4l136 518c2 7 10 14 18 14h42c14 0 22 -10 18 -24l-189 -672c-2 -8 -10 -14 -18 -14h-16c-7 0 -14 5 -17 11l-173 541h-5l-170 -541 c-3 -6 -10 -11 -17 -11h-16c-8 0 -16 6 -18 14zM317 775l-14 18c-5 7 0 15 6 19l120 94c4 3 9 4 13 4c6 0 9 -1 13 -4l120 -94c6 -4 11 -12 6 -19c-9 -12 -17 -36 -37 -22l-102 70l-102 -68c-12 -8 -18 -5 -23 2z"></glyph><glyph glyph-name="Wdieresis" unicode="Ẅ" d="M218 4l-189 672c-4 14 4 24 18 24h42c8 0 16 -7 18 -14l139 -518h4l167 531c2 6 8 11 17 11h18c8 0 15 -5 17 -11l170 -531h4l136 518c2 7 10 14 18 14h42c14 0 22 -10 18 -24l-189 -672c-2 -8 -10 -14 -18 -14h-16c-7 0 -14 5 -17 11l-173 541h-5l-170 -541 c-3 -6 -10 -11 -17 -11h-16c-8 0 -16 6 -18 14zM547 788c-28 0 -51 23 -51 51c0 29 23 52 51 52c29 0 52 -23 52 -52c0 -28 -23 -51 -52 -51zM336 788c-28 0 -51 23 -51 51c0 29 23 52 51 52c29 0 52 -23 52 -52c0 -28 -23 -51 -52 -51z"></glyph><glyph glyph-name="Wgrave" unicode="Ẁ" d="M218 4l-189 672c-4 14 4 24 18 24h42c8 0 16 -7 18 -14l139 -518h4l167 531c2 6 8 11 17 11h18c8 0 15 -5 17 -11l170 -531h4l136 518c2 7 10 14 18 14h42c14 0 22 -10 18 -24l-189 -672c-2 -8 -10 -14 -18 -14h-16c-7 0 -14 5 -17 11l-173 541h-5l-170 -541 c-3 -6 -10 -11 -17 -11h-16c-8 0 -16 6 -18 14zM509 781l-161 67c-8 3 -10 13 -6 21l18 36c5 9 20 7 26 3l150 -84c6 -3 10 -11 6 -19l-10 -22c-4 -8 -9 -8 -23 -2z"></glyph><glyph glyph-name="Yacute" unicode="Ý" d="M248 19v318l-241 334c-8 13 0 29 16 29h47c7 0 13 -5 16 -9l202 -279l202 279c3 4 9 9 16 9h47c16 0 24 -16 16 -29l-244 -333v-319c0 -10 -9 -19 -19 -19h-39c-11 0 -19 9 -19 19zM198 783l-10 22c-4 8 0 16 6 19l150 84c6 4 21 6 26 -3l18 -36c4 -8 2 -18 -6 -21 l-161 -67c-14 -6 -19 -6 -23 2z"></glyph><glyph glyph-name="Ycircumflex" unicode="Ŷ" d="M248 19v318l-241 334c-8 13 0 29 16 29h47c7 0 13 -5 16 -9l202 -279l202 279c3 4 9 9 16 9h47c16 0 24 -16 16 -29l-244 -333v-319c0 -10 -9 -19 -19 -19h-39c-11 0 -19 9 -19 19zM163 775l-14 18c-5 7 0 15 6 19l120 94c4 3 9 4 13 4c6 0 9 -1 13 -4l120 -94 c6 -4 11 -12 6 -19c-9 -12 -17 -36 -37 -22l-102 70l-102 -68c-12 -8 -18 -5 -23 2z"></glyph><glyph glyph-name="Ydieresis" unicode="Ÿ" d="M248 19v318l-241 334c-8 13 0 29 16 29h47c7 0 13 -5 16 -9l202 -279l202 279c3 4 9 9 16 9h47c16 0 24 -16 16 -29l-244 -333v-319c0 -10 -9 -19 -19 -19h-39c-11 0 -19 9 -19 19zM393 788c-28 0 -51 23 -51 51c0 29 23 52 51 52c29 0 52 -23 52 -52 c0 -28 -23 -51 -52 -51zM182 788c-28 0 -51 23 -51 51c0 29 23 52 51 52c29 0 52 -23 52 -52c0 -28 -23 -51 -52 -51z"></glyph><glyph glyph-name="Ygrave" unicode="Ỳ" d="M248 19v318l-241 334c-8 13 0 29 16 29h47c7 0 13 -5 16 -9l202 -279l202 279c3 4 9 9 16 9h47c16 0 24 -16 16 -29l-244 -333v-319c0 -10 -9 -19 -19 -19h-39c-11 0 -19 9 -19 19zM355 781l-161 67c-8 3 -10 13 -6 21l18 36c5 9 20 7 26 3l150 -84c6 -3 10 -11 6 -19 l-10 -22c-4 -8 -9 -8 -23 -2z"></glyph><glyph glyph-name="Zacute" unicode="Ź" d="M27 19v8c0 7 2 13 5 19l358 581v3h-315c-10 0 -19 9 -19 19v32c0 10 9 19 19 19h405c10 0 19 -9 19 -19v-3c0 -7 -2 -13 -5 -19l-364 -588v-1h330c11 0 19 -9 19 -19v-32c0 -10 -8 -19 -19 -19h-414c-10 0 -19 9 -19 19zM202 783l-10 22c-4 8 0 16 6 19l150 84 c6 4 21 6 26 -3l18 -36c4 -8 2 -18 -6 -21l-161 -67c-14 -6 -19 -6 -23 2z"></glyph><glyph glyph-name="Zcaron" unicode="Ž" d="M27 19v8c0 7 2 13 5 19l358 581v3h-315c-10 0 -19 9 -19 19v32c0 10 9 19 19 19h405c10 0 19 -9 19 -19v-3c0 -7 -2 -13 -5 -19l-364 -588v-1h330c11 0 19 -9 19 -19v-32c0 -10 -8 -19 -19 -19h-414c-10 0 -19 9 -19 19zM282 768c-4 0 -9 1 -13 4l-120 94 c-6 4 -11 12 -6 19l14 18c5 7 11 10 23 2l102 -68l102 70c12 8 18 5 23 -2l14 -20c9 -12 -11 -23 -19 -29l-107 -84c-4 -3 -7 -4 -13 -4z"></glyph><glyph glyph-name="Zdotaccent" unicode="Ż" d="M27 19v8c0 7 2 13 5 19l358 581v3h-315c-10 0 -19 9 -19 19v32c0 10 9 19 19 19h405c10 0 19 -9 19 -19v-3c0 -7 -2 -13 -5 -19l-364 -588v-1h330c11 0 19 -9 19 -19v-32c0 -10 -8 -19 -19 -19h-414c-10 0 -19 9 -19 19zM282 798c-30 0 -54 25 -54 54c0 32 24 56 54 56 c31 0 55 -24 55 -56c0 -29 -24 -54 -55 -54z"></glyph><glyph glyph-name="agrave" unicode="à" d="M42 140c0 88 66 153 185 153c49 0 99 -15 99 -15c1 85 -10 127 -76 127c-63 0 -116 -20 -137 -27c-12 -5 -18 1 -22 12l-10 27c-4 14 3 20 14 25c23 10 83 30 159 30c118 0 143 -58 143 -194v-256c0 -12 -10 -22 -22 -22h-19c-12 0 -16 7 -19 17l-9 31 c-24 -24 -72 -59 -143 -59c-81 0 -143 58 -143 151zM115 140c0 -47 32 -84 83 -84c57 0 107 32 127 62v94c-15 8 -52 18 -98 18c-64 0 -112 -31 -112 -90zM304 559l-161 67c-8 3 -10 13 -6 21l18 36c5 9 20 7 26 3l150 -84c6 -3 10 -11 6 -19l-10 -22c-4 -8 -9 -8 -23 -2z "></glyph><glyph glyph-name="aacute" unicode="á" d="M42 140c0 88 66 153 185 153c49 0 99 -15 99 -15c1 85 -10 127 -76 127c-63 0 -116 -20 -137 -27c-12 -5 -18 1 -22 12l-10 27c-4 14 3 20 14 25c23 10 83 30 159 30c118 0 143 -58 143 -194v-256c0 -12 -10 -22 -22 -22h-19c-12 0 -16 7 -19 17l-9 31 c-24 -24 -72 -59 -143 -59c-81 0 -143 58 -143 151zM115 140c0 -47 32 -84 83 -84c57 0 107 32 127 62v94c-15 8 -52 18 -98 18c-64 0 -112 -31 -112 -90zM148 561l-10 22c-4 8 0 16 6 19l150 84c6 4 21 6 26 -3l18 -36c4 -8 2 -18 -6 -21l-161 -67c-14 -6 -19 -6 -23 2z "></glyph><glyph glyph-name="acircumflex" unicode="â" d="M42 140c0 88 66 153 185 153c49 0 99 -15 99 -15c1 85 -10 127 -76 127c-63 0 -116 -20 -137 -27c-12 -5 -18 1 -22 12l-10 27c-4 14 3 20 14 25c23 10 83 30 159 30c118 0 143 -58 143 -194v-256c0 -12 -10 -22 -22 -22h-19c-12 0 -16 7 -19 17l-9 31 c-24 -24 -72 -59 -143 -59c-81 0 -143 58 -143 151zM115 140c0 -47 32 -84 83 -84c57 0 107 32 127 62v94c-15 8 -52 18 -98 18c-64 0 -112 -31 -112 -90zM105 555l-14 18c-5 7 0 15 6 19l120 94c4 3 9 4 13 4c6 0 9 -1 13 -4l120 -94c6 -4 11 -12 6 -19 c-9 -12 -17 -36 -37 -22l-102 70l-102 -68c-12 -8 -18 -5 -23 2z"></glyph><glyph glyph-name="atilde" unicode="ã" d="M42 140c0 88 66 153 185 153c49 0 99 -15 99 -15c1 85 -10 127 -76 127c-63 0 -116 -20 -137 -27c-12 -5 -18 1 -22 12l-10 27c-4 14 3 20 14 25c23 10 83 30 159 30c118 0 143 -58 143 -194v-256c0 -12 -10 -22 -22 -22h-19c-12 0 -16 7 -19 17l-9 31 c-24 -24 -72 -59 -143 -59c-81 0 -143 58 -143 151zM115 140c0 -47 32 -84 83 -84c57 0 107 32 127 62v94c-15 8 -52 18 -98 18c-64 0 -112 -31 -112 -90zM104 575l-18 9c-8 4 -7 15 -4 22c9 18 26 84 92 84c60 0 79 -74 110 -74c28 0 40 34 45 51c3 10 12 13 23 8l16 -8 c12 -6 6 -19 4 -26c-10 -29 -34 -81 -89 -81s-82 75 -110 75c-27 0 -37 -29 -44 -50c-3 -10 -12 -17 -25 -10z"></glyph><glyph glyph-name="adieresis" unicode="ä" d="M42 140c0 88 66 153 185 153c49 0 99 -15 99 -15c1 85 -10 127 -76 127c-63 0 -116 -20 -137 -27c-12 -5 -18 1 -22 12l-10 27c-4 14 3 20 14 25c23 10 83 30 159 30c118 0 143 -58 143 -194v-256c0 -12 -10 -22 -22 -22h-19c-12 0 -16 7 -19 17l-9 31 c-24 -24 -72 -59 -143 -59c-81 0 -143 58 -143 151zM115 140c0 -47 32 -84 83 -84c57 0 107 32 127 62v94c-15 8 -52 18 -98 18c-64 0 -112 -31 -112 -90zM337 581c-28 0 -51 23 -51 51c0 29 23 52 51 52c29 0 52 -23 52 -52c0 -28 -23 -51 -52 -51zM144 581 c-28 0 -51 23 -51 51c0 29 23 52 51 52c29 0 52 -23 52 -52c0 -28 -23 -51 -52 -51z"></glyph><glyph glyph-name="amacron" unicode="ā" d="M42 140c0 88 66 153 185 153c49 0 99 -15 99 -15c1 85 -10 127 -76 127c-63 0 -116 -20 -137 -27c-12 -5 -18 1 -22 12l-10 27c-4 14 3 20 14 25c23 10 83 30 159 30c118 0 143 -58 143 -194v-256c0 -12 -10 -22 -22 -22h-19c-12 0 -16 7 -19 17l-9 31 c-24 -24 -72 -59 -143 -59c-81 0 -143 58 -143 151zM115 140c0 -47 32 -84 83 -84c57 0 107 32 127 62v94c-15 8 -52 18 -98 18c-64 0 -112 -31 -112 -90zM99 583c-11 0 -19 8 -19 18v21c0 11 8 19 19 19h256c11 0 19 -8 19 -19v-21c0 -10 -8 -18 -19 -18h-256z"></glyph><glyph glyph-name="abreve" unicode="ă" d="M42 140c0 88 66 153 185 153c49 0 99 -15 99 -15c1 85 -10 127 -76 127c-63 0 -116 -20 -137 -27c-12 -5 -18 1 -22 12l-10 27c-4 14 3 20 14 25c23 10 83 30 159 30c118 0 143 -58 143 -194v-256c0 -12 -10 -22 -22 -22h-19c-12 0 -16 7 -19 17l-9 31 c-24 -24 -72 -59 -143 -59c-81 0 -143 58 -143 151zM115 140c0 -47 32 -84 83 -84c57 0 107 32 127 62v94c-15 8 -52 18 -98 18c-64 0 -112 -31 -112 -90zM238 531c-70 0 -126 49 -135 114c-2 11 2 20 14 20h21c11 0 16 -8 19 -17c11 -38 41 -64 81 -64c37 0 68 29 79 64 c4 11 10 17 19 17h23c11 0 16 -9 14 -20c-11 -65 -66 -114 -135 -114z"></glyph><glyph glyph-name="aring" unicode="å" d="M42 140c0 88 66 153 185 153c49 0 99 -15 99 -15c1 85 -10 127 -76 127c-63 0 -116 -20 -137 -27c-12 -5 -18 1 -22 12l-10 27c-4 14 3 20 14 25c23 10 83 30 159 30c118 0 143 -58 143 -194v-256c0 -12 -10 -22 -22 -22h-19c-12 0 -16 7 -19 17l-9 31 c-24 -24 -72 -59 -143 -59c-81 0 -143 58 -143 151zM115 140c0 -47 32 -84 83 -84c57 0 107 32 127 62v94c-15 8 -52 18 -98 18c-64 0 -112 -31 -112 -90zM229 513c-61 0 -109 48 -109 109s48 109 109 109c60 0 109 -48 109 -109s-49 -109 -109 -109zM229 561 c32 0 59 29 59 61s-27 59 -59 59s-61 -27 -61 -59s29 -61 61 -61z"></glyph><glyph glyph-name="aringacute" unicode="ǻ" d="M227 510c-61 0 -109 35 -109 96s48 96 109 96c60 0 109 -35 109 -96s-49 -96 -109 -96zM227 558c32 0 59 16 59 48s-27 46 -59 46s-61 -14 -61 -46s29 -48 61 -48zM133 717l-10 22c-4 8 0 16 6 19l150 65c7 3 21 5 26 -4l18 -36c4 -8 2 -19 -6 -21l-161 -49 c-15 -5 -19 -4 -23 4zM42 140c0 88 66 153 185 153c49 0 99 -15 99 -15c1 85 -10 127 -76 127c-63 0 -116 -20 -137 -27c-12 -5 -18 1 -22 12l-10 27c-4 14 3 20 14 25c23 10 83 30 159 30c118 0 143 -58 143 -194v-256c0 -12 -10 -22 -22 -22h-19c-12 0 -16 7 -19 17l-9 31 c-24 -24 -72 -59 -143 -59c-81 0 -143 58 -143 151zM115 140c0 -47 32 -84 83 -84c57 0 107 32 127 62v94c-15 8 -52 18 -98 18c-64 0 -112 -31 -112 -90z"></glyph><glyph glyph-name="aogonek" unicode="ą" d="M42 140c0 88 66 153 185 153c49 0 99 -15 99 -15c1 85 -10 127 -76 127c-63 0 -116 -20 -137 -27c-12 -5 -18 1 -22 12l-10 27c-4 14 3 20 14 25c23 10 83 30 159 30c118 0 143 -58 143 -194v-256c0 -10 -8 -17 -17 -22c-39 -22 -104 -70 -104 -131c0 -33 19 -53 51 -53 c29 0 55 20 63 26c7 6 15 4 16 -5l1 -34c1 -9 -2 -17 -12 -24c-14 -8 -47 -23 -83 -23c-65 0 -99 44 -99 100c0 78 82 133 124 159l-9 33c-24 -24 -72 -59 -143 -59c-81 0 -143 58 -143 151zM115 140c0 -47 32 -84 83 -84c57 0 107 32 127 62v94c-15 8 -52 18 -98 18 c-64 0 -112 -31 -112 -90z"></glyph><glyph glyph-name="ae" unicode="æ" d="M43 142c0 87 64 150 171 150c56 0 111 -6 111 -6c2 86 -12 119 -70 119c-72 0 -126 -21 -147 -27c-11 -4 -22 4 -24 16l-6 28c-2 12 6 19 19 23c0 0 73 27 162 27c78 0 109 -24 126 -63c38 38 93 63 154 63c115 0 208 -82 208 -210c0 -23 -1 -48 -23 -48h-327v-75 c29 -49 86 -83 149 -83c49 0 91 20 118 38c15 10 22 15 33 0l16 -23c8 -11 12 -16 -5 -29c-29 -22 -90 -53 -170 -53c-75 0 -133 28 -174 82c-32 -40 -95 -82 -169 -82c-90 0 -152 59 -152 153zM399 274h269c0 75 -60 131 -130 131c-57 0 -113 -35 -139 -78v-53zM117 141 c0 -59 46 -85 93 -85c49 0 96 31 115 60v106s-37 9 -99 9c-58 0 -109 -33 -109 -90z"></glyph><glyph glyph-name="aeacute" unicode="ǽ" d="M43 142c0 87 64 150 171 150c56 0 111 -6 111 -6c2 86 -12 119 -70 119c-72 0 -126 -21 -147 -27c-11 -4 -22 4 -24 16l-6 28c-2 12 6 19 19 23c0 0 73 27 162 27c78 0 109 -24 126 -63c38 38 93 63 154 63c115 0 208 -82 208 -210c0 -23 -1 -48 -23 -48h-327v-75 c29 -49 86 -83 149 -83c49 0 91 20 118 38c15 10 22 15 33 0l16 -23c8 -11 12 -16 -5 -29c-29 -22 -90 -53 -170 -53c-75 0 -133 28 -174 82c-32 -40 -95 -82 -169 -82c-90 0 -152 59 -152 153zM399 274h269c0 75 -60 131 -130 131c-57 0 -113 -35 -139 -78v-53zM117 141 c0 -59 46 -85 93 -85c49 0 96 31 115 60v106s-37 9 -99 9c-58 0 -109 -33 -109 -90zM339 561l-10 22c-4 8 0 16 6 19l150 84c6 4 21 6 26 -3l18 -36c4 -8 2 -18 -6 -21l-161 -67c-14 -6 -19 -6 -23 2z"></glyph><glyph glyph-name="cacute" unicode="ć" d="M48 230c0 136 100 242 234 242c69 0 125 -27 168 -76c9 -11 7 -24 -4 -33l-16 -15c-15 -13 -24 -3 -33 7c-32 36 -69 50 -116 50c-88 0 -158 -78 -158 -174c0 -98 69 -175 155 -175c70 0 100 36 126 66c13 15 26 11 39 -2l6 -6c10 -10 14 -20 6 -32 c-35 -51 -97 -93 -174 -93c-137 0 -233 102 -233 241zM197 561l-10 22c-4 8 0 16 6 19l150 84c6 4 21 6 26 -3l18 -36c4 -8 2 -18 -6 -21l-161 -67c-14 -6 -19 -6 -23 2z"></glyph><glyph glyph-name="ccircumflex" unicode="ĉ" d="M48 230c0 136 100 242 234 242c69 0 125 -27 168 -76c9 -11 7 -24 -4 -33l-16 -15c-15 -13 -24 -3 -33 7c-32 36 -69 50 -116 50c-88 0 -158 -78 -158 -174c0 -98 69 -175 155 -175c70 0 100 36 126 66c13 15 26 11 39 -2l6 -6c10 -10 14 -20 6 -32 c-35 -51 -97 -93 -174 -93c-137 0 -233 102 -233 241zM157 555l-14 18c-5 7 0 15 6 19l120 94c4 3 9 4 13 4c6 0 9 -1 13 -4l120 -94c6 -4 11 -12 6 -19c-9 -12 -17 -36 -37 -22l-102 70l-102 -68c-12 -8 -18 -5 -23 2z"></glyph><glyph glyph-name="ccaron" unicode="č" d="M48 230c0 136 100 242 234 242c69 0 125 -27 168 -76c9 -11 7 -24 -4 -33l-16 -15c-15 -13 -24 -3 -33 7c-32 36 -69 50 -116 50c-88 0 -158 -78 -158 -174c0 -98 69 -175 155 -175c70 0 100 36 126 66c13 15 26 11 39 -2l6 -6c10 -10 14 -20 6 -32 c-35 -51 -97 -93 -174 -93c-137 0 -233 102 -233 241zM268 546l-120 94c-6 4 -11 12 -6 19l14 18c5 7 11 10 23 2l102 -68l102 70c12 8 18 5 23 -2l14 -20c9 -12 -11 -23 -19 -29l-107 -84c-4 -3 -7 -4 -13 -4c-4 0 -9 1 -13 4z"></glyph><glyph glyph-name="cdotaccent" unicode="ċ" d="M48 230c0 136 100 242 234 242c69 0 125 -27 168 -76c9 -11 7 -24 -4 -33l-16 -15c-15 -13 -24 -3 -33 7c-32 36 -69 50 -116 50c-88 0 -158 -78 -158 -174c0 -98 69 -175 155 -175c70 0 100 36 126 66c13 15 26 11 39 -2l6 -6c10 -10 14 -20 6 -32 c-35 -51 -97 -93 -174 -93c-137 0 -233 102 -233 241zM285 581c-30 0 -54 25 -54 54c0 32 24 56 54 56c31 0 55 -24 55 -56c0 -29 -24 -54 -55 -54z"></glyph><glyph glyph-name="ccedilla" unicode="ç" d="M48 230c0 136 106 242 234 242c69 0 125 -27 168 -76c9 -11 7 -24 -4 -33l-16 -15c-15 -13 -24 -3 -33 7c-32 36 -69 50 -116 50c-88 0 -158 -82 -158 -174s69 -175 155 -175c70 0 100 36 126 66c13 15 26 11 39 -2l6 -6c10 -10 14 -20 6 -32c-34 -49 -92 -89 -164 -93 l-36 -56c6 2 15 4 25 4c42 0 87 -23 87 -83c0 -57 -53 -94 -112 -94c-37 0 -65 12 -82 28c-6 6 -4 13 0 21l8 15c5 10 12 11 21 5c10 -10 27 -20 50 -20c34 0 56 14 56 41c0 31 -22 41 -53 41c-18 0 -38 -5 -48 -10c-7 -3 -15 6 -12 13l47 98c-111 18 -194 113 -194 238z "></glyph><glyph glyph-name="dcaron" unicode="ď" d="M49 232c0 135 80 240 219 240c76 0 128 -29 128 -29v235c0 11 10 22 22 22h28c12 0 23 -11 23 -22v-656c0 -12 -11 -22 -23 -22h-18c-10 0 -16 8 -20 19l-6 30s-59 -60 -146 -60c-117 0 -207 111 -207 243zM124 231c0 -90 57 -175 141 -175c83 0 131 74 131 74v249 s-54 26 -118 26c-99 0 -154 -82 -154 -174zM522 663c0 30 23 48 54 48c41 0 69 -30 69 -85c0 -50 -23 -89 -46 -112c-5 -5 -9 -4 -15 0l-16 12c-7 7 -5 12 0 17c16 13 29 39 29 65c0 10 -2 17 -5 22c-3 -3 -13 -7 -25 -7c-27 0 -45 17 -45 40z"></glyph><glyph glyph-name="dcroat" unicode="đ" d="M49 232c0 135 80 240 219 240c76 0 128 -29 128 -29v93h-155c-11 0 -19 8 -19 18v8c0 10 8 19 19 19h155v97c0 11 10 22 22 22h28c12 0 23 -11 23 -22v-97h29c10 0 18 -9 18 -19v-7c0 -10 -8 -19 -18 -19h-29v-514c0 -12 -11 -22 -23 -22h-18c-10 0 -16 8 -20 19l-6 30 s-59 -60 -146 -60c-117 0 -207 111 -207 243zM124 231c0 -90 57 -175 141 -175c83 0 130 74 130 74v249s-53 26 -117 26c-99 0 -154 -82 -154 -174z"></glyph><glyph glyph-name="eth" unicode="ð" d="M50 226c0 137 105 223 222 223c88 0 156 -46 156 -46c-18 70 -74 132 -132 177l-100 -58c-9 -5 -21 -1 -25 7l-4 8c-6 8 -3 20 6 25l82 48c-52 33 -84 47 -102 54c-12 5 -14 13 -8 25l13 28c3 7 12 10 21 7c30 -11 84 -35 142 -76l72 41c11 6 22 2 27 -7l4 -7 c5 -9 2 -20 -7 -26l-56 -32c82 -71 157 -178 157 -334c0 -164 -73 -293 -240 -293c-134 0 -228 106 -228 236zM123 221c0 -88 68 -163 155 -163c121 0 168 114 168 211c0 16 -2 31 -4 46c0 0 -67 67 -163 67c-87 0 -156 -71 -156 -161z"></glyph><glyph glyph-name="egrave" unicode="è" d="M49 231c0 130 84 241 224 241c121 0 209 -89 209 -210c0 -8 -1 -20 -2 -28c-1 -12 -11 -20 -21 -20h-336c2 -77 67 -158 151 -158c61 0 99 21 125 38c16 11 23 15 35 -3l12 -17c9 -14 13 -19 -4 -32c-28 -22 -89 -53 -169 -53c-140 0 -224 110 -224 242zM124 273h284 c-2 68 -56 132 -135 132c-78 0 -140 -60 -149 -132zM325 559l-161 67c-8 3 -10 13 -6 21l18 36c5 9 20 7 26 3l150 -84c6 -3 10 -11 6 -19l-10 -22c-4 -8 -9 -8 -23 -2z"></glyph><glyph glyph-name="eacute" unicode="é" d="M49 231c0 130 84 241 224 241c121 0 209 -89 209 -210c0 -8 -1 -20 -2 -28c-1 -12 -11 -20 -21 -20h-336c2 -77 67 -158 151 -158c61 0 99 21 125 38c16 11 23 15 35 -3l12 -17c9 -14 13 -19 -4 -32c-28 -22 -89 -53 -169 -53c-140 0 -224 110 -224 242zM124 273h284 c-2 68 -56 132 -135 132c-78 0 -140 -60 -149 -132zM187 561l-10 22c-4 8 0 16 6 19l150 84c6 4 21 6 26 -3l18 -36c4 -8 2 -18 -6 -21l-161 -67c-14 -6 -19 -6 -23 2z"></glyph><glyph glyph-name="ecircumflex" unicode="ê" d="M49 231c0 130 84 241 224 241c121 0 209 -89 209 -210c0 -8 -1 -20 -2 -28c-1 -12 -11 -20 -21 -20h-336c2 -77 67 -158 151 -158c61 0 99 21 125 38c16 11 23 15 35 -3l12 -17c9 -14 13 -19 -4 -32c-28 -22 -89 -53 -169 -53c-140 0 -224 110 -224 242zM124 273h284 c-2 68 -56 132 -135 132c-78 0 -140 -60 -149 -132zM153 555l-14 18c-5 7 0 15 6 19l120 94c4 3 9 4 13 4c6 0 9 -1 13 -4l120 -94c6 -4 11 -12 6 -19c-9 -12 -17 -36 -37 -22l-102 70l-102 -68c-12 -8 -18 -5 -23 2z"></glyph><glyph glyph-name="ecaron" unicode="ě" d="M49 231c0 130 84 241 224 241c121 0 209 -89 209 -210c0 -8 -1 -20 -2 -28c-1 -12 -11 -20 -21 -20h-336c2 -77 67 -158 151 -158c61 0 99 21 125 38c16 11 23 15 35 -3l12 -17c9 -14 13 -19 -4 -32c-28 -22 -89 -53 -169 -53c-140 0 -224 110 -224 242zM124 273h284 c-2 68 -56 132 -135 132c-78 0 -140 -60 -149 -132zM259 546l-120 94c-6 4 -11 12 -6 19l14 18c5 7 11 10 23 2l102 -68l102 70c12 8 18 5 23 -2l14 -20c9 -12 -11 -23 -19 -29l-107 -84c-4 -3 -7 -4 -13 -4c-4 0 -9 1 -13 4z"></glyph><glyph glyph-name="edieresis" unicode="ë" d="M49 231c0 130 84 241 224 241c121 0 209 -89 209 -210c0 -8 -1 -20 -2 -28c-1 -12 -11 -20 -21 -20h-336c2 -77 67 -158 151 -158c61 0 99 21 125 38c16 11 23 15 35 -3l12 -17c9 -14 13 -19 -4 -32c-28 -22 -89 -53 -169 -53c-140 0 -224 110 -224 242zM124 273h284 c-2 68 -56 132 -135 132c-78 0 -140 -60 -149 -132zM370 581c-28 0 -51 23 -51 51c0 29 23 52 51 52c29 0 52 -23 52 -52c0 -28 -23 -51 -52 -51zM177 581c-28 0 -51 23 -51 51c0 29 23 52 51 52c29 0 52 -23 52 -52c0 -28 -23 -51 -52 -51z"></glyph><glyph glyph-name="emacron" unicode="ē" d="M49 231c0 130 84 241 224 241c121 0 209 -89 209 -210c0 -8 -1 -20 -2 -28c-1 -12 -11 -20 -21 -20h-336c2 -77 67 -158 151 -158c61 0 99 21 125 38c16 11 23 15 35 -3l12 -17c9 -14 13 -19 -4 -32c-28 -22 -89 -53 -169 -53c-140 0 -224 110 -224 242zM124 273h284 c-2 68 -56 132 -135 132c-78 0 -140 -60 -149 -132zM146 583c-11 0 -19 8 -19 18v21c0 11 8 19 19 19h256c11 0 19 -8 19 -19v-21c0 -10 -8 -18 -19 -18h-256z"></glyph><glyph glyph-name="ebreve" unicode="ĕ" d="M49 231c0 130 84 241 224 241c121 0 209 -89 209 -210c0 -8 -1 -20 -2 -28c-1 -12 -11 -20 -21 -20h-336c2 -77 67 -158 151 -158c61 0 99 21 125 38c16 11 23 15 35 -3l12 -17c9 -14 13 -19 -4 -32c-28 -22 -89 -53 -169 -53c-140 0 -224 110 -224 242zM124 273h284 c-2 68 -56 132 -135 132c-78 0 -140 -60 -149 -132zM276 531c-70 0 -126 49 -135 114c-2 11 2 20 14 20h21c11 0 16 -8 19 -17c11 -38 41 -64 81 -64c37 0 68 29 79 64c4 11 10 17 19 17h23c11 0 16 -9 14 -20c-11 -65 -66 -114 -135 -114z"></glyph><glyph glyph-name="edotaccent" unicode="ė" d="M49 231c0 130 84 241 224 241c121 0 209 -89 209 -210c0 -8 -1 -20 -2 -28c-1 -12 -11 -20 -21 -20h-336c2 -77 67 -158 151 -158c61 0 99 21 125 38c16 11 23 15 35 -3l12 -17c9 -14 13 -19 -4 -32c-28 -22 -89 -53 -169 -53c-140 0 -224 110 -224 242zM124 273h284 c-2 68 -56 132 -135 132c-78 0 -140 -60 -149 -132zM277 581c-30 0 -54 25 -54 54c0 32 24 56 54 56c31 0 55 -24 55 -56c0 -29 -24 -54 -55 -54z"></glyph><glyph glyph-name="eogonek" unicode="ę" d="M49 231c0 130 84 241 224 241c121 0 209 -89 209 -210c0 -8 -1 -20 -2 -28c-1 -12 -11 -20 -21 -20h-336c2 -77 67 -158 151 -158c61 0 99 21 125 38c16 11 23 15 35 -3l12 -17c9 -14 13 -19 -4 -32c-18 -14 -48 -31 -88 -42c-39 -23 -103 -71 -103 -131 c0 -33 19 -53 51 -53c29 0 55 20 63 26c7 6 15 4 16 -5l1 -34c1 -9 -2 -17 -12 -24c-14 -8 -47 -23 -83 -23c-65 0 -99 44 -99 100c0 63 43 105 82 133c-138 2 -221 111 -221 242zM124 273h284c-2 68 -56 132 -135 132c-78 0 -140 -60 -149 -132z"></glyph><glyph glyph-name="gcircumflex" unicode="ĝ" d="M160 555l-14 18c-5 7 0 15 6 19l120 94c4 3 9 4 13 4c6 0 9 -1 13 -4l120 -94c6 -4 11 -12 6 -19c-9 -12 -17 -36 -37 -22l-102 70l-102 -68c-12 -8 -18 -5 -23 2zM124 232c0 -100 66 -175 154 -175c64 0 117 38 117 38v253s-47 56 -122 56c-92 0 -149 -82 -149 -172z M469 440v-443c0 -158 -97 -216 -202 -216c-73 0 -137 38 -161 60c-8 7 -10 20 -5 27l20 29c7 11 19 11 30 1c25 -21 65 -49 116 -49c73 0 129 40 129 148v33s-52 -41 -128 -41c-127 0 -219 107 -219 242c0 132 90 241 216 241c83 0 138 -47 138 -47l7 21c5 9 10 16 22 16h14 c12 0 23 -11 23 -22z"></glyph><glyph glyph-name="gbreve" unicode="ğ" d="M287 531c-70 0 -126 49 -135 114c-2 11 2 20 14 20h21c11 0 16 -8 19 -17c11 -38 41 -64 81 -64c37 0 68 29 79 64c4 11 10 17 19 17h23c11 0 16 -9 14 -20c-11 -65 -66 -114 -135 -114zM124 232c0 -100 66 -175 154 -175c64 0 117 38 117 38v253s-47 56 -122 56 c-92 0 -149 -82 -149 -172zM469 440v-443c0 -158 -97 -216 -202 -216c-73 0 -137 38 -161 60c-8 7 -10 20 -5 27l20 29c7 11 19 11 30 1c25 -21 65 -49 116 -49c73 0 129 40 129 148v33s-52 -41 -128 -41c-127 0 -219 107 -219 242c0 132 90 241 216 241 c83 0 138 -47 138 -47l7 21c5 9 10 16 22 16h14c12 0 23 -11 23 -22z"></glyph><glyph glyph-name="gdotaccent" unicode="ġ" d="M288 581c-30 0 -54 25 -54 54c0 32 24 56 54 56c31 0 55 -24 55 -56c0 -29 -24 -54 -55 -54zM124 232c0 -100 66 -175 154 -175c64 0 117 38 117 38v253s-47 56 -122 56c-92 0 -149 -82 -149 -172zM469 440v-443c0 -158 -97 -216 -202 -216c-73 0 -137 38 -161 60 c-8 7 -10 20 -5 27l20 29c7 11 19 11 30 1c25 -21 65 -49 116 -49c73 0 129 40 129 148v33s-52 -41 -128 -41c-127 0 -219 107 -219 242c0 132 90 241 216 241c83 0 138 -47 138 -47l7 21c5 9 10 16 22 16h14c12 0 23 -11 23 -22z"></glyph><glyph glyph-name="gcommaaccent" unicode="ģ" d="M124 232c0 -100 66 -175 154 -175c64 0 117 38 117 38v253s-47 56 -122 56c-92 0 -149 -82 -149 -172zM469 440v-443c0 -158 -97 -216 -202 -216c-73 0 -137 38 -161 60c-8 7 -10 20 -5 27l20 29c7 11 19 11 30 1c25 -21 65 -49 116 -49c73 0 129 40 129 148v33 s-52 -41 -128 -41c-127 0 -219 107 -219 242c0 132 90 241 216 241c83 0 138 -47 138 -47l7 21c5 9 10 16 22 16h14c12 0 23 -11 23 -22zM348 600c0 -30 -23 -48 -54 -48c-41 0 -69 30 -69 85c0 50 23 89 46 112c5 5 9 4 15 0l16 -12c7 -7 5 -12 0 -17 c-16 -13 -29 -39 -29 -65c0 -10 2 -17 5 -22c3 3 13 7 25 7c27 0 45 -17 45 -40z"></glyph><glyph glyph-name="hcircumflex" unicode="ĥ" d="M78 22v656c0 11 10 22 22 22h30c11 0 22 -11 22 -22v-265s54 59 147 59c115 0 167 -71 167 -206v-244c0 -12 -11 -22 -22 -22h-31c-12 0 -22 10 -22 22v244c0 88 -26 139 -97 139c-88 0 -142 -66 -142 -66v-317c0 -12 -11 -22 -22 -22h-30c-12 0 -22 10 -22 22zM-15 772 l-14 18c-5 7 0 15 6 19l120 94c4 3 9 4 13 4c6 0 9 -1 13 -4l120 -94c6 -4 11 -12 6 -19c-9 -12 -17 -36 -37 -22l-102 70l-102 -68c-12 -8 -18 -5 -23 2z"></glyph><glyph glyph-name="hbar" unicode="ħ" d="M78 22v514h-32c-10 0 -18 9 -18 19v7c0 10 8 19 18 19h32v97c0 11 10 22 22 22h30c11 0 22 -11 22 -22v-97h151c11 0 19 -9 19 -19v-8c0 -10 -8 -18 -19 -18h-151v-123s64 59 157 59c115 0 177 -71 177 -206v-244c0 -12 -11 -22 -22 -22h-31c-12 0 -22 10 -22 22v244 c0 88 -36 139 -107 139c-88 0 -152 -66 -152 -66v-317c0 -12 -11 -22 -22 -22h-30c-12 0 -22 10 -22 22z"></glyph><glyph glyph-name="dotlessi" unicode="ı" d="M78 22v418c0 11 10 22 22 22h30c11 0 22 -11 22 -22v-418c0 -12 -11 -22 -22 -22h-30c-12 0 -22 10 -22 22z"></glyph><glyph glyph-name="igrave" unicode="ì" d="M78 22v418c0 11 10 22 22 22h30c11 0 22 -11 22 -22v-418c0 -12 -11 -22 -22 -22h-30c-12 0 -22 10 -22 22zM185 559l-161 67c-8 3 -10 13 -6 21l18 36c5 9 20 7 26 3l150 -84c6 -3 10 -11 6 -19l-10 -22c-4 -8 -9 -8 -23 -2z"></glyph><glyph glyph-name="iacute" unicode="í" d="M78 22v418c0 11 10 22 22 22h30c11 0 22 -11 22 -22v-418c0 -12 -11 -22 -22 -22h-30c-12 0 -22 10 -22 22zM29 561l-10 22c-4 8 0 16 6 19l150 84c6 4 21 6 26 -3l18 -36c4 -8 2 -18 -6 -21l-161 -67c-14 -6 -19 -6 -23 2z"></glyph><glyph glyph-name="ibreve" unicode="ĭ" d="M78 22v418c0 11 10 22 22 22h30c11 0 22 -11 22 -22v-418c0 -12 -11 -22 -22 -22h-30c-12 0 -22 10 -22 22zM118 531c-70 0 -126 49 -135 114c-2 11 2 20 14 20h21c11 0 16 -8 19 -17c11 -38 41 -64 81 -64c37 0 68 29 79 64c4 11 10 17 19 17h23c11 0 16 -9 14 -20 c-11 -65 -66 -114 -135 -114z"></glyph><glyph glyph-name="icircumflex" unicode="î" d="M78 22v418c0 11 10 22 22 22h30c11 0 22 -11 22 -22v-418c0 -12 -11 -22 -22 -22h-30c-12 0 -22 10 -22 22zM-7 555l-14 18c-5 7 0 15 6 19l120 94c4 3 9 4 13 4c6 0 9 -1 13 -4l120 -94c6 -4 11 -12 6 -19c-9 -12 -17 -36 -37 -22l-102 70l-102 -68c-12 -8 -18 -5 -23 2 z"></glyph><glyph glyph-name="itilde" unicode="ĩ" d="M78 22v418c0 11 10 22 22 22h30c11 0 22 -11 22 -22v-418c0 -12 -11 -22 -22 -22h-30c-12 0 -22 10 -22 22zM-7 575l-18 9c-8 4 -7 15 -4 22c9 18 26 84 92 84c60 0 79 -74 110 -74c28 0 40 34 45 51c3 10 12 13 23 8l16 -8c12 -6 6 -19 4 -26c-10 -29 -34 -81 -89 -81 s-82 75 -110 75c-27 0 -37 -29 -44 -50c-3 -10 -12 -17 -25 -10z"></glyph><glyph glyph-name="idieresis" unicode="ï" d="M78 22v418c0 11 10 22 22 22h30c11 0 22 -11 22 -22v-418c0 -12 -11 -22 -22 -22h-30c-12 0 -22 10 -22 22zM212 581c-28 0 -51 23 -51 51c0 29 23 52 51 52c29 0 52 -23 52 -52c0 -28 -23 -51 -52 -51zM19 581c-28 0 -51 23 -51 51c0 29 23 52 51 52c29 0 52 -23 52 -52 c0 -28 -23 -51 -52 -51z"></glyph><glyph glyph-name="imacron" unicode="ī" d="M78 22v418c0 11 10 22 22 22h30c11 0 22 -11 22 -22v-418c0 -12 -11 -22 -22 -22h-30c-12 0 -22 10 -22 22zM-10 583c-11 0 -19 8 -19 18v21c0 11 8 19 19 19h256c11 0 19 -8 19 -19v-21c0 -10 -8 -18 -19 -18h-256z"></glyph><glyph glyph-name="iogonek" unicode="į" d="M79 16v424c0 11 10 22 22 22h30c11 0 22 -11 22 -22v-415c0 -10 -8 -19 -16 -24c-39 -24 -105 -71 -105 -132c0 -33 19 -53 51 -53c29 0 55 20 63 26c7 6 15 4 16 -5l1 -34c1 -9 -2 -17 -12 -24c-14 -8 -47 -23 -83 -23c-65 0 -99 44 -99 100c0 74 67 131 110 160z M114 581c-30 0 -54 25 -54 54c0 32 24 56 54 56c31 0 55 -24 55 -56c0 -29 -24 -54 -55 -54z"></glyph><glyph glyph-name="dotlessj" unicode="ȷ" d="M152 440v-490c0 -125 -55 -182 -131 -198c-11 -2 -18 2 -21 12l-10 30c-5 14 3 23 14 27c47 17 74 42 74 122v497c0 13 10 22 22 22h30c11 0 22 -9 22 -22z"></glyph><glyph glyph-name="jcircumflex" unicode="ĵ" d="M152 440v-490c0 -125 -55 -182 -131 -198c-11 -2 -18 2 -21 12l-10 30c-5 14 3 23 14 27c47 17 74 42 74 122v497c0 13 10 22 22 22h30c11 0 22 -9 22 -22zM-10 555l-14 18c-5 7 0 15 6 19l120 94c4 3 9 4 13 4c6 0 9 -1 13 -4l120 -94c6 -4 11 -12 6 -19 c-9 -12 -17 -36 -37 -22l-102 70l-102 -68c-12 -8 -18 -5 -23 2z"></glyph><glyph glyph-name="kcommaaccent" unicode="ķ" d="M78 22v656c0 11 10 22 22 22h30c11 0 22 -11 22 -22v-391l192 161c10 9 19 14 28 14h56c20 0 19 -22 11 -28l-213 -177l229 -228c9 -8 8 -29 -12 -29h-57c-9 0 -18 5 -23 9l-211 223v-210c0 -12 -11 -22 -22 -22h-30c-12 0 -22 10 -22 22zM200 -119c0 30 23 48 54 48 c41 0 69 -30 69 -85c0 -50 -23 -89 -46 -112c-5 -5 -9 -4 -15 0l-16 12c-7 7 -5 12 0 17c16 13 29 39 29 65c0 10 -2 17 -5 22c-3 -3 -13 -7 -25 -7c-27 0 -45 17 -45 40z"></glyph><glyph glyph-name="kgreenlandic" unicode="ĸ" d="M78 22v418c0 11 10 22 22 22h30c11 0 22 -11 22 -22v-191l206 199c8 8 17 14 27 14h55c20 0 19 -22 10 -28l-226 -205l256 -200c9 -8 8 -29 -12 -29h-59c-11 0 -18 5 -23 9l-234 191v-178c0 -12 -11 -22 -22 -22h-30c-12 0 -22 10 -22 22z"></glyph><glyph glyph-name="lacute" unicode="ĺ" d="M83 22v656c0 11 10 22 22 22h30c11 0 22 -11 22 -22v-656c0 -12 -11 -22 -22 -22h-30c-12 0 -22 10 -22 22zM36 778l-10 22c-4 8 0 16 6 19l150 84c6 4 21 6 26 -3l18 -36c4 -8 2 -18 -6 -21l-161 -67c-14 -6 -19 -6 -23 2z"></glyph><glyph glyph-name="lcaron" unicode="ľ" d="M83 22v656c0 11 10 22 22 22h30c11 0 22 -11 22 -22v-656c0 -12 -11 -22 -22 -22h-30c-12 0 -22 10 -22 22zM210 663c0 30 23 48 54 48c41 0 69 -30 69 -85c0 -50 -23 -89 -46 -112c-5 -5 -9 -4 -15 0l-16 12c-7 7 -5 12 0 17c16 13 29 39 29 65c0 10 -2 17 -5 22 c-3 -3 -13 -7 -25 -7c-27 0 -45 17 -45 40z"></glyph><glyph glyph-name="lcommaaccent" unicode="ļ" d="M83 22v656c0 11 10 22 22 22h30c11 0 22 -11 22 -22v-656c0 -12 -11 -22 -22 -22h-30c-12 0 -22 10 -22 22zM64 -119c0 30 23 48 54 48c41 0 69 -30 69 -85c0 -50 -23 -89 -46 -112c-5 -5 -9 -4 -15 0l-16 12c-7 7 -5 12 0 17c16 13 29 39 29 65c0 10 -2 17 -5 22 c-3 -3 -13 -7 -25 -7c-27 0 -45 17 -45 40z"></glyph><glyph glyph-name="lslash" unicode="ł" d="M93 22v298l-48 -27c-8 -5 -20 -2 -25 7l-3 6c-5 8 -3 20 6 26l70 40v306c0 11 10 22 22 22h30c11 0 22 -11 22 -22v-263l87 50c10 6 21 1 26 -7l3 -6c5 -9 2 -20 -7 -26l-109 -63v-341c0 -12 -11 -22 -22 -22h-30c-12 0 -22 10 -22 22z"></glyph><glyph glyph-name="ldot" unicode="ŀ" d="M83 22v656c0 11 10 22 22 22h30c11 0 22 -11 22 -22v-656c0 -12 -11 -22 -22 -22h-30c-12 0 -22 10 -22 22zM292 288c-31 0 -57 26 -57 57c0 32 26 57 57 57c32 0 57 -25 57 -57c0 -31 -25 -57 -57 -57z"></glyph><glyph glyph-name="nacute" unicode="ń" d="M78 22v418c0 11 10 22 22 22h16c10 0 16 -4 18 -14l10 -35s59 59 155 59c134 0 167 -87 167 -206v-244c0 -12 -11 -22 -22 -22h-30c-12 0 -22 10 -22 22v254c0 88 -30 129 -98 129c-87 0 -142 -64 -142 -64v-319c0 -12 -11 -22 -22 -22h-30c-12 0 -22 10 -22 22zM185 561 l-10 22c-4 8 0 16 6 19l150 84c6 4 21 6 26 -3l18 -36c4 -8 2 -18 -6 -21l-161 -67c-14 -6 -19 -6 -23 2z"></glyph><glyph glyph-name="ncaron" unicode="ň" d="M78 22v418c0 11 10 22 22 22h16c10 0 16 -4 18 -14l10 -35s59 59 155 59c134 0 167 -87 167 -206v-244c0 -12 -11 -22 -22 -22h-30c-12 0 -22 10 -22 22v254c0 88 -30 129 -98 129c-87 0 -142 -64 -142 -64v-319c0 -12 -11 -22 -22 -22h-30c-12 0 -22 10 -22 22zM261 546 l-120 94c-6 4 -11 12 -6 19l14 18c5 7 11 10 23 2l102 -68l102 70c12 8 18 5 23 -2l14 -20c9 -12 -11 -23 -19 -29l-107 -84c-4 -3 -7 -4 -13 -4c-4 0 -9 1 -13 4z"></glyph><glyph glyph-name="ntilde" unicode="ñ" d="M78 22v418c0 11 10 22 22 22h16c10 0 16 -4 18 -14l10 -35s59 59 155 59c134 0 167 -87 167 -206v-244c0 -12 -11 -22 -22 -22h-30c-12 0 -22 10 -22 22v254c0 88 -30 129 -98 129c-87 0 -142 -64 -142 -64v-319c0 -12 -11 -22 -22 -22h-30c-12 0 -22 10 -22 22zM149 575 l-18 9c-8 4 -7 15 -4 22c9 18 26 84 92 84c60 0 79 -74 110 -74c28 0 40 34 45 51c3 10 12 13 23 8l16 -8c12 -6 6 -19 4 -26c-10 -29 -34 -81 -89 -81s-82 75 -110 75c-27 0 -37 -29 -44 -50c-3 -10 -12 -17 -25 -10z"></glyph><glyph glyph-name="ncommaaccent" unicode="ņ" d="M78 22v418c0 11 10 22 22 22h16c10 0 16 -4 18 -14l10 -35s59 59 155 59c134 0 167 -87 167 -206v-244c0 -12 -11 -22 -22 -22h-30c-12 0 -22 10 -22 22v254c0 88 -30 129 -98 129c-87 0 -142 -64 -142 -64v-319c0 -12 -11 -22 -22 -22h-30c-12 0 -22 10 -22 22z M217 -119c0 30 23 48 54 48c41 0 69 -30 69 -85c0 -50 -23 -89 -46 -112c-5 -5 -9 -4 -15 0l-16 12c-7 7 -5 12 0 17c16 13 29 39 29 65c0 10 -2 17 -5 22c-3 -3 -13 -7 -25 -7c-27 0 -45 17 -45 40z"></glyph><glyph glyph-name="napostrophe" unicode="ŉ" d="M-41 663c0 30 23 48 54 48c41 0 69 -30 69 -85c0 -50 -23 -89 -46 -112c-5 -5 -9 -4 -15 0l-16 12c-7 7 -5 12 0 17c16 13 29 39 29 65c0 10 -2 17 -5 22c-3 -3 -13 -7 -25 -7c-27 0 -45 17 -45 40zM78 22v418c0 11 10 22 22 22h16c10 0 16 -4 18 -14l10 -35 s59 59 155 59c134 0 167 -87 167 -206v-244c0 -12 -11 -22 -22 -22h-30c-12 0 -22 10 -22 22v254c0 88 -30 129 -98 129c-87 0 -142 -64 -142 -64v-319c0 -12 -11 -22 -22 -22h-30c-12 0 -22 10 -22 22z"></glyph><glyph glyph-name="ograve" unicode="ò" d="M48 232c0 130 104 240 232 240s232 -110 232 -240c0 -132 -104 -243 -232 -243s-232 111 -232 243zM121 232c0 -96 68 -176 159 -176s158 80 158 176c0 94 -67 173 -158 173s-159 -79 -159 -173zM345 559l-161 67c-8 3 -10 13 -6 21l18 36c5 9 20 7 26 3l150 -84 c6 -3 10 -11 6 -19l-10 -22c-4 -8 -9 -8 -23 -2z"></glyph><glyph glyph-name="oacute" unicode="ó" d="M48 232c0 130 104 240 232 240s232 -110 232 -240c0 -132 -104 -243 -232 -243s-232 111 -232 243zM121 232c0 -96 68 -176 159 -176s158 80 158 176c0 94 -67 173 -158 173s-159 -79 -159 -173zM189 561l-10 22c-4 8 0 16 6 19l150 84c6 4 21 6 26 -3l18 -36 c4 -8 2 -18 -6 -21l-161 -67c-14 -6 -19 -6 -23 2z"></glyph><glyph glyph-name="ocircumflex" unicode="ô" d="M48 232c0 130 104 240 232 240s232 -110 232 -240c0 -132 -104 -243 -232 -243s-232 111 -232 243zM121 232c0 -96 68 -176 159 -176s158 80 158 176c0 94 -67 173 -158 173s-159 -79 -159 -173zM152 555l-14 18c-5 7 0 15 6 19l120 94c4 3 9 4 13 4c6 0 9 -1 13 -4 l120 -94c6 -4 11 -12 6 -19c-9 -12 -17 -36 -37 -22l-102 70l-102 -68c-12 -8 -18 -5 -23 2z"></glyph><glyph glyph-name="otilde" unicode="õ" d="M48 232c0 130 104 240 232 240s232 -110 232 -240c0 -132 -104 -243 -232 -243s-232 111 -232 243zM121 232c0 -96 68 -176 159 -176s158 80 158 176c0 94 -67 173 -158 173s-159 -79 -159 -173zM154 575l-18 9c-8 4 -7 15 -4 22c9 18 26 84 92 84c60 0 79 -74 110 -74 c28 0 40 34 45 51c3 10 12 13 23 8l16 -8c12 -6 6 -19 4 -26c-10 -29 -34 -81 -89 -81s-82 75 -110 75c-27 0 -37 -29 -44 -50c-3 -10 -12 -17 -25 -10z"></glyph><glyph glyph-name="odieresis" unicode="ö" d="M48 232c0 130 104 240 232 240s232 -110 232 -240c0 -132 -104 -243 -232 -243s-232 111 -232 243zM121 232c0 -96 68 -176 159 -176s158 80 158 176c0 94 -67 173 -158 173s-159 -79 -159 -173zM374 581c-28 0 -51 23 -51 51c0 29 23 52 51 52c29 0 52 -23 52 -52 c0 -28 -23 -51 -52 -51zM181 581c-28 0 -51 23 -51 51c0 29 23 52 51 52c29 0 52 -23 52 -52c0 -28 -23 -51 -52 -51z"></glyph><glyph glyph-name="omacron" unicode="ō" d="M48 232c0 130 104 240 232 240s232 -110 232 -240c0 -132 -104 -243 -232 -243s-232 111 -232 243zM121 232c0 -96 68 -176 159 -176s158 80 158 176c0 94 -67 173 -158 173s-159 -79 -159 -173zM151 583c-11 0 -19 8 -19 18v21c0 11 8 19 19 19h256c11 0 19 -8 19 -19 v-21c0 -10 -8 -18 -19 -18h-256z"></glyph><glyph glyph-name="obreve" unicode="ŏ" d="M48 232c0 130 104 240 232 240s232 -110 232 -240c0 -132 -104 -243 -232 -243s-232 111 -232 243zM121 232c0 -96 68 -176 159 -176s158 80 158 176c0 94 -67 173 -158 173s-159 -79 -159 -173zM278 531c-70 0 -126 49 -135 114c-2 11 2 20 14 20h21c11 0 16 -8 19 -17 c11 -38 41 -64 81 -64c37 0 68 29 79 64c4 11 10 17 19 17h23c11 0 16 -9 14 -20c-11 -65 -66 -114 -135 -114z"></glyph><glyph glyph-name="ohungarumlaut" unicode="ő" d="M48 232c0 130 104 240 232 240s232 -110 232 -240c0 -132 -104 -243 -232 -243s-232 111 -232 243zM121 232c0 -96 68 -176 159 -176s158 80 158 176c0 94 -67 173 -158 173s-159 -79 -159 -173zM359 521c-10 0 -14 9 -11 19l50 141c3 10 9 19 19 19h39 c19 0 25 -12 18 -25l-78 -139c-4 -8 -11 -15 -18 -15h-19zM193 521c-10 0 -14 9 -11 19l50 141c3 10 9 19 19 19h39c19 0 25 -12 18 -25l-78 -139c-4 -8 -11 -15 -18 -15h-19z"></glyph><glyph glyph-name="oslash" unicode="ø" d="M48 232c0 130 104 240 232 240c56 0 108 -21 148 -56l24 24c10 9 24 9 32 0l5 -5c10 -9 10 -22 0 -31l-26 -26c31 -41 49 -92 49 -146c0 -132 -104 -243 -232 -243c-56 0 -107 21 -147 55l-17 -17c-8 -8 -21 -7 -29 1l-6 6c-9 9 -10 22 -1 30l18 18 c-32 41 -50 94 -50 150zM120 232c0 -37 10 -72 27 -100l233 235c-27 23 -62 38 -100 38c-91 0 -160 -79 -160 -173zM439 232c0 35 -10 67 -26 95l-232 -234c27 -23 61 -37 99 -37c91 0 159 80 159 176z"></glyph><glyph glyph-name="oslashacute" unicode="ǿ" d="M48 232c0 130 104 240 232 240c56 0 108 -21 148 -56l24 24c10 9 24 9 32 0l5 -5c10 -9 10 -22 0 -31l-26 -26c31 -41 49 -92 49 -146c0 -132 -104 -243 -232 -243c-56 0 -107 21 -147 55l-17 -17c-8 -8 -21 -7 -29 1l-6 6c-9 9 -10 22 -1 30l18 18 c-32 41 -50 94 -50 150zM120 232c0 -37 10 -72 27 -100l233 235c-27 23 -62 38 -100 38c-91 0 -160 -79 -160 -173zM439 232c0 35 -10 67 -26 95l-232 -234c27 -23 61 -37 99 -37c91 0 159 80 159 176zM188 561l-10 22c-4 8 0 16 6 19l150 84c6 4 21 6 26 -3l18 -36 c4 -8 2 -18 -6 -21l-161 -67c-14 -6 -19 -6 -23 2z"></glyph><glyph glyph-name="oe" unicode="œ" d="M48 233c0 130 101 239 229 239c76 0 147 -38 189 -99c40 62 101 99 182 99c115 0 209 -82 209 -210c0 -8 -1 -20 -2 -28c-1 -12 -11 -20 -21 -20h-332c4 -89 78 -158 154 -158c57 0 87 16 124 38c6 4 21 9 29 -3l13 -20c7 -11 13 -16 -4 -29c-28 -22 -90 -53 -170 -53 c-81 0 -142 44 -182 105c-42 -61 -113 -105 -189 -105c-128 0 -229 112 -229 244zM504 272h279c-3 78 -59 133 -135 133c-78 0 -137 -62 -144 -133zM119 232c0 -96 69 -176 160 -176s157 80 157 176c0 94 -66 173 -157 173s-160 -79 -160 -173z"></glyph><glyph glyph-name="racute" unicode="ŕ" d="M78 22v418c0 11 10 22 22 22h16c9 0 17 -5 20 -16l8 -33s46 59 142 59c35 0 92 -5 81 -37l-13 -36c-5 -15 -16 -16 -27 -11s-28 13 -50 13c-89 0 -125 -59 -125 -59v-320c0 -12 -11 -22 -22 -22h-30c-12 0 -22 10 -22 22zM123 561l-10 22c-4 8 0 16 6 19l150 84 c6 4 21 6 26 -3l18 -36c4 -8 2 -18 -6 -21l-161 -67c-14 -6 -19 -6 -23 2z"></glyph><glyph glyph-name="rcaron" unicode="ř" d="M78 22v418c0 11 10 22 22 22h16c9 0 17 -5 20 -16l8 -33s46 59 142 59c35 0 92 -5 81 -37l-13 -36c-5 -15 -16 -16 -27 -11s-28 13 -50 13c-89 0 -125 -59 -125 -59v-320c0 -12 -11 -22 -22 -22h-30c-12 0 -22 10 -22 22zM184 546l-120 94c-6 4 -11 12 -6 19l14 18 c5 7 11 10 23 2l102 -68l102 70c12 8 18 5 23 -2l14 -20c9 -12 -11 -23 -19 -29l-107 -84c-4 -3 -7 -4 -13 -4c-4 0 -9 1 -13 4z"></glyph><glyph glyph-name="rcommaaccent" unicode="ŗ" d="M78 22v418c0 11 10 22 22 22h16c9 0 17 -5 20 -16l8 -33s46 59 142 59c35 0 92 -5 81 -37l-13 -36c-5 -15 -16 -16 -27 -11s-28 13 -50 13c-89 0 -125 -59 -125 -59v-320c0 -12 -11 -22 -22 -22h-30c-12 0 -22 10 -22 22zM63 -119c0 30 23 48 54 48c41 0 69 -30 69 -85 c0 -50 -23 -89 -46 -112c-5 -5 -9 -4 -15 0l-16 12c-7 7 -5 12 0 17c16 13 29 39 29 65c0 10 -2 17 -5 22c-3 -3 -13 -7 -25 -7c-27 0 -45 17 -45 40z"></glyph><glyph glyph-name="sacute" unicode="ś" d="M207 -11c-77 0 -129 34 -153 56c-5 5 -7 12 -3 20l14 26c6 11 14 15 27 6c16 -12 56 -41 115 -41c47 0 79 22 79 58c0 44 -36 62 -103 95c-61 30 -131 63 -131 142c0 48 36 121 143 121c60 0 110 -20 132 -36c10 -8 12 -18 5 -31l-10 -19c-7 -13 -22 -14 -32 -8 c-20 12 -52 27 -95 27c-51 0 -68 -29 -68 -51c0 -41 32 -56 88 -82c80 -37 149 -67 149 -151c0 -73 -63 -132 -157 -132zM127 561l-10 22c-4 8 0 16 6 19l150 84c6 4 21 6 26 -3l18 -36c4 -8 2 -18 -6 -21l-161 -67c-14 -6 -19 -6 -23 2z"></glyph><glyph glyph-name="scircumflex" unicode="ŝ" d="M207 -11c-77 0 -129 34 -153 56c-5 5 -7 12 -3 20l14 26c6 11 14 15 27 6c16 -12 56 -41 115 -41c47 0 79 22 79 58c0 44 -36 62 -103 95c-61 30 -131 63 -131 142c0 48 36 121 143 121c60 0 110 -20 132 -36c10 -8 12 -18 5 -31l-10 -19c-7 -13 -22 -14 -32 -8 c-20 12 -52 27 -95 27c-51 0 -68 -29 -68 -51c0 -41 32 -56 88 -82c80 -37 149 -67 149 -151c0 -73 -63 -132 -157 -132zM83 555l-14 18c-5 7 0 15 6 19l120 94c4 3 9 4 13 4c6 0 9 -1 13 -4l120 -94c6 -4 11 -12 6 -19c-9 -12 -17 -36 -37 -22l-102 70l-102 -68 c-12 -8 -18 -5 -23 2z"></glyph><glyph glyph-name="scaron" unicode="š" d="M207 -11c-77 0 -129 34 -153 56c-5 5 -7 12 -3 20l14 26c6 11 14 15 27 6c16 -12 56 -41 115 -41c47 0 79 22 79 58c0 44 -36 62 -103 95c-61 30 -131 63 -131 142c0 48 36 121 143 121c60 0 110 -20 132 -36c10 -8 12 -18 5 -31l-10 -19c-7 -13 -22 -14 -32 -8 c-20 12 -52 27 -95 27c-51 0 -68 -29 -68 -51c0 -41 32 -56 88 -82c80 -37 149 -67 149 -151c0 -73 -63 -132 -157 -132zM196 546l-120 94c-6 4 -11 12 -6 19l14 18c5 7 11 10 23 2l102 -68l102 70c12 8 18 5 23 -2l14 -20c9 -12 -11 -23 -19 -29l-107 -84 c-4 -3 -7 -4 -13 -4c-4 0 -9 1 -13 4z"></glyph><glyph glyph-name="scedilla" unicode="ş" d="M364 121c0 -71 -60 -129 -149 -132l-36 -56c6 2 15 4 25 4c42 0 87 -23 87 -83c0 -57 -53 -94 -112 -94c-37 0 -65 12 -82 28c-6 6 -4 13 0 21l8 15c5 10 12 11 21 5c10 -10 27 -20 50 -20c34 0 56 14 56 41c0 31 -22 41 -53 41c-18 0 -38 -5 -48 -10c-7 -3 -15 6 -12 13 l47 98c-54 8 -89 31 -109 48c-5 5 -10 17 -6 25l14 26c6 11 19 13 32 4c16 -12 51 -39 110 -39c47 0 79 22 79 58c0 44 -36 62 -103 95c-61 30 -131 63 -131 142c0 48 36 121 143 121c60 0 107 -18 129 -34c10 -8 15 -20 8 -33l-10 -19c-7 -13 -22 -14 -32 -8 c-20 12 -52 27 -95 27c-51 0 -68 -29 -68 -48c0 -44 32 -59 88 -85c80 -37 149 -67 149 -151z"></glyph><glyph glyph-name="scommaaccent" unicode="ș" d="M207 -11c-77 0 -129 34 -153 56c-5 5 -7 12 -3 20l14 26c6 11 14 15 27 6c16 -12 56 -41 115 -41c47 0 79 22 79 58c0 44 -36 62 -103 95c-61 30 -131 63 -131 142c0 48 36 121 143 121c60 0 110 -20 132 -36c10 -8 12 -18 5 -31l-10 -19c-7 -13 -22 -14 -32 -8 c-20 12 -52 27 -95 27c-51 0 -68 -29 -68 -51c0 -41 32 -56 88 -82c80 -37 149 -67 149 -151c0 -73 -63 -132 -157 -132zM151 -119c0 30 23 48 54 48c41 0 69 -30 69 -85c0 -50 -23 -89 -46 -112c-5 -5 -9 -4 -15 0l-16 12c-7 7 -5 12 0 17c16 13 29 39 29 65 c0 10 -2 17 -5 22c-3 -3 -13 -7 -25 -7c-27 0 -45 17 -45 40z"></glyph><glyph glyph-name="germandbls" unicode="ß" d="M78 21v401c0 181 65 288 214 288c103 0 180 -63 180 -166c0 -102 -70 -150 -70 -187c0 -35 131 -75 131 -211c0 -102 -73 -157 -165 -157c-50 0 -84 8 -99 15c-10 5 -21 10 -17 25l9 33c4 14 11 19 24 13c19 -9 44 -19 83 -19c55 0 90 38 90 91c0 97 -140 123 -140 207 c0 55 80 110 80 186c0 60 -46 103 -107 103c-101 0 -139 -79 -139 -222v-400c0 -11 -10 -21 -21 -21h-32c-11 0 -21 10 -21 21z"></glyph><glyph glyph-name="tcaron" unicode="ť" d="M108 398h-61c-14 0 -23 10 -23 22v20c0 13 9 22 23 22h61v128c0 12 11 21 22 22l31 2c12 1 21 -10 21 -22v-130h136c13 0 23 -9 23 -22v-20c0 -12 -10 -22 -23 -22h-136v-276c0 -48 15 -66 41 -66c43 0 72 18 91 30c18 11 24 2 29 -9l9 -21c6 -15 4 -22 -8 -30 c-20 -14 -68 -37 -130 -37c-88 0 -106 56 -106 128v281zM329 663c0 30 23 48 54 48c41 0 69 -30 69 -85c0 -50 -23 -89 -46 -112c-5 -5 -9 -4 -15 0l-16 12c-7 7 -5 12 0 17c16 13 29 39 29 65c0 10 -2 17 -5 22c-3 -3 -13 -7 -25 -7c-27 0 -45 17 -45 40z"></glyph><glyph glyph-name="tcommaaccent" unicode="ţ" d="M109 398h-61c-14 0 -23 10 -23 22v20c0 13 9 22 23 22h61v128c0 12 11 21 22 22l31 2c12 1 21 -10 21 -22v-130h136c13 0 23 -9 23 -22v-20c0 -12 -10 -22 -23 -22h-136v-276c0 -48 15 -66 41 -66c43 0 71 20 90 32c18 11 24 2 29 -9l10 -23c6 -15 4 -22 -8 -30 c-17 -12 -53 -29 -100 -35l-37 -58c6 2 15 4 25 4c42 0 84 -23 84 -83c0 -57 -50 -94 -109 -94c-37 0 -65 12 -82 28c-6 6 -4 13 0 21l8 15c5 10 12 11 21 5c10 -10 27 -20 50 -20c34 0 56 18 56 45c0 31 -22 45 -53 45c-18 0 -34 -5 -44 -10c-7 -3 -15 6 -12 13l43 88 c-71 8 -86 61 -86 127v281z"></glyph><glyph glyph-name="uni021B" unicode="ț" d="M108 398h-61c-14 0 -23 10 -23 22v20c0 13 9 22 23 22h61v128c0 12 11 21 22 22l31 2c12 1 21 -10 21 -22v-130h136c13 0 23 -9 23 -22v-20c0 -12 -10 -22 -23 -22h-136v-276c0 -48 15 -66 41 -66c43 0 72 18 91 30c18 11 24 2 29 -9l9 -21c6 -15 4 -22 -8 -30 c-20 -14 -68 -37 -130 -37c-88 0 -106 56 -106 128v281zM161 -119c0 30 23 48 54 48c41 0 69 -30 69 -85c0 -50 -23 -89 -46 -112c-5 -5 -9 -4 -15 0l-16 12c-7 7 -5 12 0 17c16 13 29 39 29 65c0 10 -2 17 -5 22c-3 -3 -13 -7 -25 -7c-27 0 -45 17 -45 40z"></glyph><glyph glyph-name="tbar" unicode="ŧ" d="M110 117v87h-50c-11 0 -21 10 -21 22v8c0 12 10 22 21 22h50v142h-61c-14 0 -23 10 -23 22v20c0 13 9 22 23 22h61v128c0 12 11 21 22 22l31 2c12 1 21 -10 21 -22v-130h136c13 0 23 -9 23 -22v-20c0 -12 -10 -22 -23 -22h-136v-142h111c13 0 22 -10 22 -22v-9 c0 -12 -9 -21 -22 -21h-111v-88c0 -46 15 -60 41 -60c43 0 71 20 90 32c18 11 24 2 29 -9l10 -23c6 -15 4 -22 -8 -30c-20 -14 -68 -37 -130 -37c-88 0 -106 56 -106 128z"></glyph><glyph glyph-name="thorn" unicode="þ" d="M151 27v-243c0 -12 -11 -22 -22 -22h-29c-12 0 -22 10 -22 22v894c0 11 10 22 22 22h29c11 0 22 -11 22 -22v-250s48 44 131 44c133 0 215 -110 215 -242c0 -136 -91 -241 -218 -241c-77 0 -128 38 -128 38zM151 348v-250s53 -42 117 -42c89 0 154 68 154 175 c0 90 -49 174 -149 174c-74 0 -122 -57 -122 -57z"></glyph><glyph glyph-name="ugrave" unicode="ù" d="M73 191v249c0 11 9 22 22 22h30c12 0 22 -11 22 -22v-250c0 -92 30 -134 97 -134c69 0 110 43 131 67v317c0 11 9 22 21 22h31c11 0 21 -11 21 -22v-418c0 -12 -10 -22 -21 -22h-16c-13 0 -18 8 -21 20l-9 29c-17 -18 -60 -60 -143 -60c-133 0 -165 80 -165 202zM331 559 l-161 67c-8 3 -10 13 -6 21l18 36c5 9 20 7 26 3l150 -84c6 -3 10 -11 6 -19l-10 -22c-4 -8 -9 -8 -23 -2z"></glyph><glyph glyph-name="uacute" unicode="ú" d="M73 191v249c0 11 9 22 22 22h30c12 0 22 -11 22 -22v-250c0 -92 30 -134 97 -134c69 0 110 43 131 67v317c0 11 9 22 21 22h31c11 0 21 -11 21 -22v-418c0 -12 -10 -22 -21 -22h-16c-13 0 -18 8 -21 20l-9 29c-17 -18 -60 -60 -143 -60c-133 0 -165 80 -165 202zM182 561 l-10 22c-4 8 0 16 6 19l150 84c6 4 21 6 26 -3l18 -36c4 -8 2 -18 -6 -21l-161 -67c-14 -6 -19 -6 -23 2z"></glyph><glyph glyph-name="ucircumflex" unicode="û" d="M73 191v249c0 11 9 22 22 22h30c12 0 22 -11 22 -22v-250c0 -92 30 -134 97 -134c69 0 110 43 131 67v317c0 11 9 22 21 22h31c11 0 21 -11 21 -22v-418c0 -12 -10 -22 -21 -22h-16c-13 0 -18 8 -21 20l-9 29c-17 -18 -60 -60 -143 -60c-133 0 -165 80 -165 202zM141 555 l-14 18c-5 7 0 15 6 19l120 94c4 3 9 4 13 4c6 0 9 -1 13 -4l120 -94c6 -4 11 -12 6 -19c-9 -12 -17 -36 -37 -22l-102 70l-102 -68c-12 -8 -18 -5 -23 2z"></glyph><glyph glyph-name="utilde" unicode="ũ" d="M73 191v249c0 11 9 22 22 22h30c12 0 22 -11 22 -22v-250c0 -92 30 -134 97 -134c69 0 110 43 131 67v317c0 11 9 22 21 22h31c11 0 21 -11 21 -22v-418c0 -12 -10 -22 -21 -22h-16c-13 0 -18 8 -21 20l-9 29c-17 -18 -60 -60 -143 -60c-133 0 -165 80 -165 202zM139 575 l-18 9c-8 4 -7 15 -4 22c9 18 26 84 92 84c60 0 79 -74 110 -74c28 0 40 34 45 51c3 10 12 13 23 8l16 -8c12 -6 6 -19 4 -26c-10 -29 -34 -81 -89 -81s-82 75 -110 75c-27 0 -37 -29 -44 -50c-3 -10 -12 -17 -25 -10z"></glyph><glyph glyph-name="udieresis" unicode="ü" d="M73 191v249c0 11 9 22 22 22h30c12 0 22 -11 22 -22v-250c0 -92 30 -134 97 -134c69 0 110 43 131 67v317c0 11 9 22 21 22h31c11 0 21 -11 21 -22v-418c0 -12 -10 -22 -21 -22h-16c-13 0 -18 8 -21 20l-9 29c-17 -18 -60 -60 -143 -60c-133 0 -165 80 -165 202zM361 581 c-28 0 -51 23 -51 51c0 29 23 52 51 52c29 0 52 -23 52 -52c0 -28 -23 -51 -52 -51zM168 581c-28 0 -51 23 -51 51c0 29 23 52 51 52c29 0 52 -23 52 -52c0 -28 -23 -51 -52 -51z"></glyph><glyph glyph-name="umacron" unicode="ū" d="M73 191v249c0 11 9 22 22 22h30c12 0 22 -11 22 -22v-250c0 -92 30 -134 97 -134c69 0 110 43 131 67v317c0 11 9 22 21 22h31c11 0 21 -11 21 -22v-418c0 -12 -10 -22 -21 -22h-16c-13 0 -18 8 -21 20l-9 29c-17 -18 -60 -60 -143 -60c-133 0 -165 80 -165 202zM136 583 c-11 0 -19 8 -19 18v21c0 11 8 19 19 19h256c11 0 19 -8 19 -19v-21c0 -10 -8 -18 -19 -18h-256z"></glyph><glyph glyph-name="ubreve" unicode="ŭ" d="M73 191v249c0 11 9 22 22 22h30c12 0 22 -11 22 -22v-250c0 -92 30 -134 97 -134c69 0 110 43 131 67v317c0 11 9 22 21 22h31c11 0 21 -11 21 -22v-418c0 -12 -10 -22 -21 -22h-16c-13 0 -18 8 -21 20l-9 29c-17 -18 -60 -60 -143 -60c-133 0 -165 80 -165 202zM265 531 c-70 0 -126 49 -135 114c-2 11 2 20 14 20h21c11 0 16 -8 19 -17c11 -38 41 -64 81 -64c37 0 68 29 79 64c4 11 10 17 19 17h23c11 0 16 -9 14 -20c-11 -65 -66 -114 -135 -114z"></glyph><glyph glyph-name="uring" unicode="ů" d="M73 191v249c0 11 9 22 22 22h30c12 0 22 -11 22 -22v-250c0 -92 30 -134 97 -134c69 0 110 43 131 67v317c0 11 9 22 21 22h31c11 0 21 -11 21 -22v-418c0 -12 -10 -22 -21 -22h-16c-13 0 -18 8 -21 20l-9 29c-17 -18 -60 -60 -143 -60c-133 0 -165 80 -165 202zM266 513 c-61 0 -109 48 -109 109s48 109 109 109c60 0 109 -48 109 -109s-49 -109 -109 -109zM266 561c32 0 59 29 59 61s-27 59 -59 59s-61 -27 -61 -59s29 -61 61 -61z"></glyph><glyph glyph-name="uhungarumlaut" unicode="ű" d="M73 191v249c0 11 9 22 22 22h30c12 0 22 -11 22 -22v-250c0 -92 30 -134 97 -134c69 0 110 43 131 67v317c0 11 9 22 21 22h31c11 0 21 -11 21 -22v-418c0 -12 -10 -22 -21 -22h-16c-13 0 -18 8 -21 20l-9 29c-17 -18 -60 -60 -143 -60c-133 0 -165 80 -165 202zM340 521 c-10 0 -14 9 -11 19l50 141c3 10 9 19 19 19h39c19 0 25 -12 18 -25l-78 -139c-4 -8 -11 -15 -18 -15h-19zM174 521c-10 0 -14 9 -11 19l50 141c3 10 9 19 19 19h39c19 0 25 -12 18 -25l-78 -139c-4 -8 -11 -15 -18 -15h-19z"></glyph><glyph glyph-name="uogonek" unicode="ų" d="M73 197v243c0 11 9 22 22 22h30c12 0 22 -11 22 -22v-244c0 -92 30 -140 97 -140c88 0 131 67 131 67v317c0 11 9 22 21 22h31c11 0 21 -11 21 -22v-418c0 -11 -8 -20 -17 -22c-39 -22 -104 -70 -104 -131c0 -33 19 -53 51 -53c29 0 55 20 63 26c7 6 15 4 16 -5l1 -34 c1 -9 -2 -17 -12 -24c-14 -8 -47 -23 -83 -23c-65 0 -99 44 -99 100c0 76 82 135 126 163l-9 30s-47 -60 -143 -60c-133 0 -165 86 -165 208z"></glyph><glyph glyph-name="wacute" unicode="ẃ" d="M351 348h-2l-136 -347c-2 -6 -8 -12 -19 -12h-6c-11 0 -17 5 -20 12l-128 435c-4 15 0 26 18 26h34c11 0 19 -5 21 -13l85 -314h2l130 326c2 6 9 11 20 11h6c9 0 17 -5 19 -11l129 -327h2l85 315c2 8 10 13 19 13h35c16 0 21 -11 16 -26l-126 -435c-2 -7 -10 -12 -19 -12 h-6c-10 0 -17 6 -20 12zM260 561l-10 22c-4 8 0 16 6 19l150 84c6 4 21 6 26 -3l18 -36c4 -8 2 -18 -6 -21l-161 -67c-14 -6 -19 -6 -23 2z"></glyph><glyph glyph-name="wcircumflex" unicode="ŵ" d="M351 348h-2l-136 -347c-2 -6 -8 -12 -19 -12h-6c-11 0 -17 5 -20 12l-128 435c-4 15 0 26 18 26h34c11 0 19 -5 21 -13l85 -314h2l130 326c2 6 9 11 20 11h6c9 0 17 -5 19 -11l129 -327h2l85 315c2 8 10 13 19 13h35c16 0 21 -11 16 -26l-126 -435c-2 -7 -10 -12 -19 -12 h-6c-10 0 -17 6 -20 12zM225 555l-14 18c-5 7 0 15 6 19l120 94c4 3 9 4 13 4c6 0 9 -1 13 -4l120 -94c6 -4 11 -12 6 -19c-9 -12 -17 -36 -37 -22l-102 70l-102 -68c-12 -8 -18 -5 -23 2z"></glyph><glyph glyph-name="wdieresis" unicode="ẅ" d="M351 348h-2l-136 -347c-2 -6 -8 -12 -19 -12h-6c-11 0 -17 5 -20 12l-128 435c-4 15 0 26 18 26h34c11 0 19 -5 21 -13l85 -314h2l130 326c2 6 9 11 20 11h6c9 0 17 -5 19 -11l129 -327h2l85 315c2 8 10 13 19 13h35c16 0 21 -11 16 -26l-126 -435c-2 -7 -10 -12 -19 -12 h-6c-10 0 -17 6 -20 12zM446 581c-28 0 -51 23 -51 51c0 29 23 52 51 52c29 0 52 -23 52 -52c0 -28 -23 -51 -52 -51zM253 581c-28 0 -51 23 -51 51c0 29 23 52 51 52c29 0 52 -23 52 -52c0 -28 -23 -51 -52 -51z"></glyph><glyph glyph-name="wgrave" unicode="ẁ" d="M351 348h-2l-136 -347c-2 -6 -8 -12 -19 -12h-6c-11 0 -17 5 -20 12l-128 435c-4 15 0 26 18 26h34c11 0 19 -5 21 -13l85 -314h2l130 326c2 6 9 11 20 11h6c9 0 17 -5 19 -11l129 -327h2l85 315c2 8 10 13 19 13h35c16 0 21 -11 16 -26l-126 -435c-2 -7 -10 -12 -19 -12 h-6c-10 0 -17 6 -20 12zM417 559l-161 67c-8 3 -10 13 -6 21l18 36c5 9 20 7 26 3l150 -84c6 -3 10 -11 6 -19l-10 -22c-4 -8 -9 -8 -23 -2z"></glyph><glyph glyph-name="yacute" unicode="ý" d="M198 1l-169 436c-6 15 0 25 18 25h42c9 0 17 -5 20 -13l131 -367h2l156 367c3 8 11 13 20 13h37c18 0 25 -11 18 -26l-289 -660c-3 -7 -12 -14 -20 -14h-36c-18 0 -26 12 -19 28zM153 561l-10 22c-4 8 0 16 6 19l150 84c6 4 21 6 26 -3l18 -36c4 -8 2 -18 -6 -21 l-161 -67c-14 -6 -19 -6 -23 2z"></glyph><glyph glyph-name="ycircumflex" unicode="ŷ" d="M198 1l-169 436c-6 15 0 25 18 25h42c9 0 17 -5 20 -13l131 -367h2l156 367c3 8 11 13 20 13h37c18 0 25 -11 18 -26l-289 -660c-3 -7 -12 -14 -20 -14h-36c-18 0 -26 12 -19 28zM125 555l-14 18c-5 7 0 15 6 19l120 94c4 3 9 4 13 4c6 0 9 -1 13 -4l120 -94 c6 -4 11 -12 6 -19c-9 -12 -17 -36 -37 -22l-102 70l-102 -68c-12 -8 -18 -5 -23 2z"></glyph><glyph glyph-name="ydieresis" unicode="ÿ" d="M198 1l-169 436c-6 15 0 25 18 25h42c9 0 17 -5 20 -13l131 -367h2l156 367c3 8 11 13 20 13h37c18 0 25 -11 18 -26l-289 -660c-3 -7 -12 -14 -20 -14h-36c-18 0 -26 12 -19 28zM347 581c-28 0 -51 23 -51 51c0 29 23 52 51 52c29 0 52 -23 52 -52 c0 -28 -23 -51 -52 -51zM154 581c-28 0 -51 23 -51 51c0 29 23 52 51 52c29 0 52 -23 52 -52c0 -28 -23 -51 -52 -51z"></glyph><glyph glyph-name="ygrave" unicode="ỳ" d="M198 1l-169 436c-6 15 0 25 18 25h42c9 0 17 -5 20 -13l131 -367h2l156 367c3 8 11 13 20 13h37c18 0 25 -11 18 -26l-289 -660c-3 -7 -12 -14 -20 -14h-36c-18 0 -26 12 -19 28zM310 559l-161 67c-8 3 -10 13 -6 21l18 36c5 9 20 7 26 3l150 -84c6 -3 10 -11 6 -19 l-10 -22c-4 -8 -9 -8 -23 -2z"></glyph><glyph glyph-name="zacute" unicode="ź" d="M38 22v2c0 7 2 12 6 18l234 354v3h-209c-11 0 -19 10 -19 22v19c0 13 8 22 19 22h293c15 0 21 -8 21 -20c0 -4 -1 -8 -4 -12l-236 -364v-3h193c14 0 22 -8 22 -22v-19c0 -12 -8 -22 -22 -22h-276c-12 0 -22 10 -22 22zM119 561l-10 22c-4 8 0 16 6 19l150 84 c6 4 21 6 26 -3l18 -36c4 -8 2 -18 -6 -21l-161 -67c-14 -6 -19 -6 -23 2z"></glyph><glyph glyph-name="zcaron" unicode="ž" d="M38 22v2c0 7 2 12 6 18l234 354v3h-209c-11 0 -19 10 -19 22v19c0 13 8 22 19 22h293c15 0 21 -8 21 -20c0 -4 -1 -8 -4 -12l-236 -364v-3h193c14 0 22 -8 22 -22v-19c0 -12 -8 -22 -22 -22h-276c-12 0 -22 10 -22 22zM201 546l-120 94c-6 4 -11 12 -6 19l14 18 c5 7 11 10 23 2l102 -68l102 70c12 8 18 5 23 -2l14 -20c9 -12 -11 -23 -19 -29l-107 -84c-4 -3 -7 -4 -13 -4c-4 0 -9 1 -13 4z"></glyph><glyph glyph-name="zdotaccent" unicode="ż" d="M38 22v2c0 7 2 12 6 18l234 354v3h-209c-11 0 -19 10 -19 22v19c0 13 8 22 19 22h293c15 0 21 -8 21 -20c0 -4 -1 -8 -4 -12l-236 -364v-3h193c14 0 22 -8 22 -22v-19c0 -12 -8 -22 -22 -22h-276c-12 0 -22 10 -22 22zM216 581c-30 0 -54 25 -54 54c0 32 24 56 54 56 c31 0 55 -24 55 -56c0 -29 -24 -54 -55 -54z"></glyph><glyph glyph-name="IJ" unicode="Ĳ" d="M96 19v662c0 10 9 19 19 19h40c10 0 19 -9 19 -19v-662c0 -10 -9 -19 -19 -19h-40c-10 0 -19 9 -19 19zM268 64c-5 8 -5 18 1 25l20 23c14 17 24 8 34 -3c17 -19 55 -52 106 -52c53 0 115 34 115 140v484c0 10 8 19 19 19h39c11 0 19 -9 19 -19v-482 c0 -139 -84 -209 -192 -209c-96 0 -144 53 -161 74z"></glyph><glyph glyph-name="ij" unicode="ĳ" d="M113 581c-30 0 -54 25 -54 54c0 32 24 56 54 56c31 0 55 -24 55 -56c0 -29 -24 -54 -55 -54zM78 22v418c0 11 10 22 22 22h30c11 0 22 -11 22 -22v-418c0 -12 -11 -22 -22 -22h-30c-12 0 -22 10 -22 22zM351 581c-31 0 -55 25 -55 54c0 32 24 56 55 56 c30 0 54 -24 54 -56c0 -29 -24 -54 -54 -54zM389 440v-490c0 -125 -55 -182 -131 -198c-11 -2 -18 2 -21 12l-10 30c-5 14 3 23 14 27c47 17 74 42 74 122v497c0 13 10 22 22 22h30c11 0 22 -9 22 -22z"></glyph><glyph glyph-name="grave.cap" d="M227 781l-161 67c-8 3 -10 13 -6 21l18 36c5 9 20 7 26 3l150 -84c6 -3 10 -11 6 -19l-10 -22c-4 -8 -9 -8 -23 -2z"></glyph><glyph glyph-name="acute" unicode="´" d="M83 561l-10 22c-4 8 0 16 6 19l150 84c6 4 21 6 26 -3l18 -36c4 -8 2 -18 -6 -21l-161 -67c-14 -6 -19 -6 -23 2z"></glyph><glyph glyph-name="acute.cap" d="M70 783l-10 22c-4 8 0 16 6 19l150 84c6 4 21 6 26 -3l18 -36c4 -8 2 -18 -6 -21l-161 -67c-14 -6 -19 -6 -23 2z"></glyph><glyph glyph-name="circumflex" unicode="ˆ" d="M60 555l-14 18c-5 7 0 15 6 19l120 94c4 3 9 4 13 4c6 0 9 -1 13 -4l120 -94c6 -4 11 -12 6 -19c-9 -12 -17 -36 -37 -22l-102 70l-102 -68c-12 -8 -18 -5 -23 2z"></glyph><glyph glyph-name="circumflex.cap" d="M60 775l-14 18c-5 7 0 15 6 19l120 94c4 3 9 4 13 4c6 0 9 -1 13 -4l120 -94c6 -4 11 -12 6 -19c-9 -12 -17 -36 -37 -22l-102 70l-102 -68c-12 -8 -18 -5 -23 2z"></glyph><glyph glyph-name="caron" unicode="ˇ" d="M172 546l-120 94c-6 4 -11 12 -6 19l14 18c5 7 11 10 23 2l102 -68l102 70c12 8 18 5 23 -2l14 -20c9 -12 -11 -23 -19 -29l-107 -84c-4 -3 -7 -4 -13 -4c-4 0 -9 1 -13 4z"></glyph><glyph glyph-name="caron.cap" d="M185 768c-4 0 -9 1 -13 4l-120 94c-6 4 -11 12 -6 19l14 18c5 7 11 10 23 2l102 -68l102 70c12 8 18 5 23 -2l14 -20c9 -12 -11 -23 -19 -29l-107 -84c-4 -3 -7 -4 -13 -4z"></glyph><glyph glyph-name="caron.alt" d="M121 663c0 30 23 48 54 48c41 0 69 -30 69 -85c0 -50 -23 -89 -46 -112c-5 -5 -9 -4 -15 0l-16 12c-7 7 -5 12 0 17c16 13 29 39 29 65c0 10 -2 17 -5 22c-3 -3 -13 -7 -25 -7c-27 0 -45 17 -45 40z"></glyph><glyph glyph-name="tilde" unicode="˜" d="M64 575l-18 9c-8 4 -7 15 -4 22c9 18 26 84 92 84c60 0 79 -74 110 -74c28 0 40 34 45 51c3 10 12 13 23 8l16 -8c12 -6 6 -19 4 -26c-10 -29 -34 -81 -89 -81s-82 75 -110 75c-27 0 -37 -29 -44 -50c-3 -10 -12 -17 -25 -10z"></glyph><glyph glyph-name="tilde.cap" d="M64 795l-18 9c-8 4 -7 15 -4 22c9 18 26 84 92 84c60 0 79 -74 110 -74c28 0 40 34 45 51c3 10 12 13 23 8l16 -8c12 -6 6 -19 4 -26c-10 -29 -34 -81 -89 -81s-82 75 -110 75c-27 0 -37 -29 -44 -50c-3 -10 -12 -17 -25 -10z"></glyph><glyph glyph-name="dieresis" unicode="¨" d="M320 581c-28 0 -51 23 -51 51c0 29 23 52 51 52c29 0 52 -23 52 -52c0 -28 -23 -51 -52 -51zM127 581c-28 0 -51 23 -51 51c0 29 23 52 51 52c29 0 52 -23 52 -52c0 -28 -23 -51 -52 -51z"></glyph><glyph glyph-name="dieresis.cap" d="M342 788c-28 0 -51 23 -51 51c0 29 23 52 51 52c29 0 52 -23 52 -52c0 -28 -23 -51 -52 -51zM131 788c-28 0 -51 23 -51 51c0 29 23 52 51 52c29 0 52 -23 52 -52c0 -28 -23 -51 -52 -51z"></glyph><glyph glyph-name="macron" unicode="¯" d="M79 583c-11 0 -19 8 -19 18v21c0 11 8 19 19 19h256c11 0 19 -8 19 -19v-21c0 -10 -8 -18 -19 -18h-256z"></glyph><glyph glyph-name="macron.cap" d="M79 821c-11 0 -19 8 -19 18v21c0 11 8 19 19 19h256c11 0 19 -8 19 -19v-21c0 -10 -8 -18 -19 -18h-256z"></glyph><glyph glyph-name="uni02C9" unicode="ˉ" d="M79 583c-11 0 -19 8 -19 18v21c0 11 8 19 19 19h256c11 0 19 -8 19 -19v-21c0 -10 -8 -18 -19 -18h-256z"></glyph><glyph glyph-name="breve" unicode="˘" d="M173 531c-70 0 -126 49 -135 114c-2 11 2 20 14 20h21c11 0 16 -8 19 -17c11 -38 41 -64 81 -64c37 0 68 29 79 64c4 11 10 17 19 17h23c11 0 16 -9 14 -20c-11 -65 -66 -114 -135 -114z"></glyph><glyph glyph-name="breve.cap" d="M173 771c-70 0 -126 49 -135 114c-2 11 2 20 14 20h21c11 0 16 -8 19 -17c11 -38 41 -64 81 -64c37 0 68 29 79 64c4 11 10 17 19 17h23c11 0 16 -9 14 -20c-11 -65 -66 -114 -135 -114z"></glyph><glyph glyph-name="ring" unicode="˚" d="M145 492c-61 0 -109 48 -109 109s48 109 109 109c60 0 109 -48 109 -109s-49 -109 -109 -109zM145 540c32 0 59 29 59 61s-27 59 -59 59s-61 -27 -61 -59s29 -61 61 -61z"></glyph><glyph glyph-name="ring.cap" d="M145 758c-61 0 -109 48 -109 109s48 109 109 109c60 0 109 -48 109 -109s-49 -109 -109 -109zM145 806c32 0 59 29 59 61s-27 59 -59 59s-61 -27 -61 -59s29 -61 61 -61z"></glyph><glyph glyph-name="hungarumlaut" unicode="˝" d="M233 521c-10 0 -14 9 -11 19l50 141c3 10 9 19 19 19h39c19 0 25 -12 18 -25l-78 -139c-4 -8 -11 -15 -18 -15h-19zM67 521c-10 0 -14 9 -11 19l50 141c3 10 9 19 19 19h39c19 0 25 -12 18 -25l-78 -139c-4 -8 -11 -15 -18 -15h-19z"></glyph><glyph glyph-name="hungarumlaut.cap" d="M231 769c-10 0 -22 9 -19 19l50 141c3 10 9 19 19 19h39c19 0 25 -12 18 -25l-78 -139c-4 -8 -11 -15 -18 -15h-11zM65 769c-10 0 -22 9 -19 19l50 141c3 10 9 19 19 19h39c19 0 25 -12 18 -25l-78 -139c-4 -8 -11 -15 -18 -15h-11z"></glyph><glyph glyph-name="dotaccent" unicode="˙" d="M108 568c-30 0 -54 25 -54 54c0 32 24 56 54 56c31 0 55 -24 55 -56c0 -29 -24 -54 -55 -54z"></glyph><glyph glyph-name="dotaccent.cap" d="M108 798c-30 0 -54 25 -54 54c0 32 24 56 54 56c31 0 55 -24 55 -56c0 -29 -24 -54 -55 -54z"></glyph><glyph glyph-name="cedilla" unicode="¸" d="M114 3h52l-45 -70c6 2 15 4 25 4c42 0 84 -23 84 -83c0 -57 -50 -94 -109 -94c-37 0 -65 12 -82 28c-6 6 -4 13 0 21l8 15c5 10 12 11 21 5c10 -10 27 -20 50 -20c34 0 56 18 56 45c0 31 -22 45 -53 45c-18 0 -34 -5 -44 -10c-7 -3 -15 6 -12 13z"></glyph><glyph glyph-name="cedilla.cap" d="M114 3h52l-45 -70c6 2 15 4 25 4c42 0 84 -23 84 -83c0 -57 -50 -94 -109 -94c-37 0 -65 12 -82 28c-6 6 -4 13 0 21l8 15c5 10 12 11 21 5c10 -10 27 -20 50 -20c34 0 56 18 56 45c0 31 -22 45 -53 45c-18 0 -34 -5 -44 -10c-7 -3 -15 6 -12 13z"></glyph><glyph glyph-name="ogonek" unicode="˛" d="M199 3c-38 -22 -109 -71 -109 -134c0 -33 19 -53 51 -53c29 0 55 20 63 26c7 6 15 4 16 -5l1 -34c1 -9 -2 -17 -12 -24c-14 -8 -47 -23 -83 -23c-65 0 -99 44 -99 100c0 80 71 127 112 153z"></glyph><glyph glyph-name="ogonek.cap" d="M199 3c-38 -22 -109 -71 -109 -134c0 -33 19 -53 51 -53c29 0 55 20 63 26c7 6 15 4 16 -5l1 -34c1 -9 -2 -17 -12 -24c-14 -8 -47 -23 -83 -23c-65 0 -99 44 -99 100c0 80 71 127 112 153z"></glyph><glyph glyph-name="commaaccent" unicode="" d="M84 -119c0 30 23 48 54 48c41 0 69 -30 69 -85c0 -50 -23 -89 -46 -112c-5 -5 -9 -4 -15 0l-16 12c-7 7 -5 12 0 17c16 13 29 39 29 65c0 10 -2 17 -5 22c-3 -3 -13 -7 -25 -7c-27 0 -45 17 -45 40z"></glyph><glyph glyph-name="commaaccent.alt" d="M191 600c0 -30 -23 -48 -54 -48c-41 0 -69 30 -69 85c0 50 23 89 46 112c5 5 9 4 15 0l16 -12c7 -7 5 -12 0 -17c-16 -13 -29 -39 -29 -65c0 -10 2 -17 5 -22c3 3 13 7 25 7c27 0 45 -17 45 -40z"></glyph><glyph glyph-name="commaaccent.cap" d="M84 -119c0 30 23 48 54 48c41 0 69 -30 69 -85c0 -50 -23 -89 -46 -112c-5 -5 -9 -4 -15 0l-16 12c-7 7 -5 12 0 17c16 13 29 39 29 65c0 10 -2 17 -5 22c-3 -3 -13 -7 -25 -7c-27 0 -45 17 -45 40z"></glyph><glyph glyph-name="ellipsis" unicode="…" d="M447 47c0 32 26 57 57 57c32 0 57 -25 57 -57c0 -31 -25 -57 -57 -57c-31 0 -57 26 -57 57zM250 47c0 32 26 57 57 57c32 0 57 -25 57 -57c0 -31 -25 -57 -57 -57c-31 0 -57 26 -57 57zM57 47c0 32 26 57 57 57c32 0 57 -25 57 -57c0 -31 -25 -57 -57 -57 c-31 0 -57 26 -57 57z"></glyph><glyph glyph-name="uni00AD" unicode="­" d="M87 220c-11 0 -19 8 -19 18v19c0 11 8 19 19 19h209c11 0 19 -8 19 -19v-19c0 -10 -8 -18 -19 -18h-209z"></glyph><glyph glyph-name="exclamdown" unicode="¡" d="M118 358c-32 0 -57 25 -57 57c0 31 25 57 57 57c31 0 57 -26 57 -57c0 -32 -26 -57 -57 -57zM93 174c1 8 10 16 19 16h12c9 0 18 -8 19 -16l19 -279v-114c0 -10 -9 -19 -19 -19h-50c-10 0 -19 9 -19 19v112z"></glyph><glyph glyph-name="questiondown" unicode="¿" d="M250 358c-32 0 -57 25 -57 57c0 31 25 57 57 57c31 0 57 -26 57 -57c0 -32 -26 -57 -57 -57zM214 128v41c0 14 11 20 21 20h27c10 0 19 -8 19 -19v-42c0 -124 -150 -114 -150 -227c0 -47 34 -88 99 -88c81 0 118 47 138 68c9 9 17 9 26 1l19 -17c8 -7 6 -18 0 -26 c0 0 -57 -88 -183 -88c-104 0 -174 61 -174 153c0 131 158 142 158 224z"></glyph><glyph glyph-name="quoteleft" unicode="‘" d="M184 489c0 -35 -20 -61 -56 -61c-49 0 -75 49 -75 110c0 76 33 129 68 167c6 6 11 5 16 1l19 -17c7 -7 4 -13 -1 -18c-28 -30 -56 -67 -56 -119c0 -7 1 -15 4 -23c7 5 23 9 33 9c32 0 48 -27 48 -49z"></glyph><glyph glyph-name="quoteright" unicode="’" d="M48 650c0 35 20 61 56 61c49 0 75 -49 75 -110c0 -76 -33 -129 -68 -167c-6 -6 -11 -5 -16 -1l-19 17c-7 7 -4 13 1 18c28 30 56 67 56 119c0 7 -1 15 -4 23c-7 -5 -23 -9 -33 -9c-32 0 -48 27 -48 49z"></glyph><glyph glyph-name="quotedblleft" unicode="“" d="M184 489c0 -35 -20 -61 -56 -61c-49 0 -75 49 -75 110c0 76 33 129 68 167c6 6 11 5 16 1l19 -17c7 -7 4 -13 -1 -18c-28 -30 -56 -67 -56 -119c0 -7 1 -15 4 -23c7 5 23 9 33 9c32 0 48 -27 48 -49zM364 489c0 -35 -20 -61 -56 -61c-49 0 -75 49 -75 110 c0 76 33 129 68 167c6 6 11 5 16 1l19 -17c7 -7 4 -13 -1 -18c-28 -30 -56 -67 -56 -119c0 -7 1 -15 4 -23c7 5 23 9 33 9c32 0 48 -27 48 -49z"></glyph><glyph glyph-name="quotedblright" unicode="”" d="M48 650c0 35 20 61 56 61c49 0 75 -49 75 -110c0 -76 -33 -129 -68 -167c-6 -6 -11 -5 -16 -1l-19 17c-7 7 -4 13 1 18c28 30 56 67 56 119c0 7 -1 15 -4 23c-7 -5 -23 -9 -33 -9c-32 0 -48 27 -48 49zM228 650c0 35 20 61 56 61c49 0 75 -49 75 -110 c0 -76 -33 -129 -68 -167c-6 -6 -11 -5 -16 -1l-19 17c-7 7 -4 13 1 18c28 30 56 67 56 119c0 7 -1 15 -4 23c-7 -5 -23 -9 -33 -9c-32 0 -48 27 -48 49z"></glyph><glyph glyph-name="quotesinglbase" unicode="‚" d="M57 49c0 35 20 61 56 61c49 0 75 -49 75 -110c0 -76 -33 -129 -68 -167c-6 -6 -11 -5 -16 -1l-19 17c-7 7 -4 13 1 18c28 30 56 67 56 119c0 7 -1 15 -4 23c-7 -5 -23 -9 -33 -9c-32 0 -48 27 -48 49z"></glyph><glyph glyph-name="quotedblbase" unicode="„" d="M57 49c0 35 20 61 56 61c49 0 75 -49 75 -110c0 -76 -33 -129 -68 -167c-6 -6 -11 -5 -16 -1l-19 17c-7 7 -4 13 1 18c28 30 56 67 56 119c0 7 -1 15 -4 23c-7 -5 -23 -9 -33 -9c-32 0 -48 27 -48 49zM236 49c0 35 20 61 56 61c49 0 75 -49 75 -110 c0 -76 -33 -129 -68 -167c-6 -6 -11 -5 -16 -1l-19 17c-7 7 -4 13 1 18c28 30 56 67 56 119c0 7 -1 15 -4 23c-7 -5 -23 -9 -33 -9c-32 0 -48 27 -48 49z"></glyph><glyph glyph-name="guilsinglleft" unicode="‹" d="M156 69l-104 155c-6 8 -4 18 0 24l109 148c5 7 10 12 18 12h14c17 0 23 -15 15 -31l-74 -139l71 -147c7 -16 2 -30 -15 -30h-19c-7 0 -12 4 -15 8z"></glyph><glyph glyph-name="guilsinglright" unicode="›" d="M79 61c-17 0 -22 14 -15 30l71 147l-74 139c-8 16 -2 31 15 31h14c8 0 14 -6 18 -12l109 -148c4 -6 6 -16 0 -24l-104 -155c-3 -4 -8 -8 -15 -8h-19z"></glyph><glyph glyph-name="guillemotleft" unicode="«" d="M215 224c-6 8 -4 18 0 24l109 148c3 5 10 12 18 12h14c17 0 23 -15 15 -31l-74 -139l71 -147c8 -16 2 -30 -15 -30h-19c-7 0 -12 4 -15 8zM156 69l-104 155c-6 8 -4 18 0 24l109 148c3 5 10 12 18 12h14c17 0 23 -15 15 -31l-74 -139l71 -147c8 -16 2 -30 -15 -30h-19 c-7 0 -12 4 -15 8z"></glyph><glyph glyph-name="guillemotright" unicode="»" d="M227 91l71 147l-74 139c-8 16 -2 31 15 31h14c8 0 15 -7 18 -12l109 -148c4 -6 6 -16 0 -24l-104 -155c-3 -4 -8 -8 -15 -8h-19c-17 0 -23 14 -15 30zM79 61c-17 0 -23 14 -15 30l71 147l-74 139c-8 16 -2 31 15 31h14c8 0 15 -7 18 -12l109 -148c4 -6 6 -16 0 -24 l-104 -155c-3 -4 -8 -8 -15 -8h-19z"></glyph><glyph glyph-name="endash" unicode="–" d="M85 223c-11 0 -19 8 -19 18v11c0 11 8 19 19 19h369c11 0 19 -8 19 -19v-11c0 -10 -8 -18 -19 -18h-369z"></glyph><glyph glyph-name="emdash" unicode="—" d="M85 223c-11 0 -19 8 -19 18v11c0 11 8 19 19 19h589c11 0 19 -8 19 -19v-11c0 -10 -8 -18 -19 -18h-589z"></glyph><glyph glyph-name="bullet" unicode="•" d="M184 149c-57 0 -105 48 -105 105c0 60 48 109 105 109c60 0 109 -49 109 -109c0 -57 -49 -105 -109 -105z"></glyph><glyph glyph-name="periodcentered" unicode="·" d="M120 204c-31 0 -57 26 -57 57c0 32 26 57 57 57c32 0 57 -25 57 -57c0 -31 -25 -57 -57 -57z"></glyph><glyph glyph-name="uni2219" unicode="∙" d="M120 204c-31 0 -57 26 -57 57c0 32 26 57 57 57c32 0 57 -25 57 -57c0 -31 -25 -57 -57 -57z"></glyph><glyph glyph-name="dagger" unicode="†" d="M58 334c-10 0 -19 9 -19 19v28c0 10 9 19 19 19h195v281c0 10 9 19 19 19h50c10 0 19 -9 19 -19v-281h198c10 0 18 -9 18 -19v-28c0 -10 -8 -19 -18 -19h-200l-17 -556c0 -8 -10 -16 -19 -16h-12c-9 0 -19 8 -19 16l-17 556h-197z"></glyph><glyph glyph-name="daggerdbl" unicode="‡" d="M77 19v28c0 10 9 19 19 19h174l-9 334h-195c-10 0 -19 9 -19 19v28c0 10 9 19 19 19h195v215c0 10 9 19 19 19h50c10 0 19 -9 19 -19v-215h198c10 0 18 -9 18 -19v-28c0 -10 -8 -19 -18 -19h-198l-9 -334h177c10 0 18 -9 18 -19v-28c0 -10 -8 -19 -18 -19h-179l-8 -222 c0 -8 -10 -16 -19 -16h-12c-9 0 -19 8 -19 16l-8 222h-176c-10 0 -19 9 -19 19z"></glyph><glyph glyph-name="section" unicode="§" d="M92 -110c8 10 19 14 30 3c6 -6 81 -75 169 -75c71 0 134 31 134 99c0 63 -60 109 -175 158c-107 45 -176 104 -176 195c0 85 80 128 80 128s-80 51 -80 144c0 68 54 168 213 168c98 0 171 -51 171 -51c6 -3 18 -15 7 -33l-15 -23c-8 -11 -17 -15 -33 -6 c-7 4 -70 46 -131 46c-108 0 -138 -58 -138 -100c0 -56 51 -97 135 -131c135 -56 222 -103 222 -202c0 -84 -85 -138 -85 -138s85 -55 85 -152c0 -104 -93 -169 -216 -169c-118 0 -198 68 -211 80c-8 7 -20 16 -6 34zM148 273c0 -83 86 -102 212 -167c0 0 65 30 65 98 c0 60 -60 93 -175 141c-14 6 -30 13 -42 19c0 0 -60 -25 -60 -91z"></glyph><glyph glyph-name="paragraph" unicode="¶" d="M251 282c-113 0 -208 92 -208 210c0 114 85 208 194 208h442c10 0 19 -9 19 -19v-20c0 -11 -9 -19 -19 -19h-111v-861c0 -10 -8 -19 -19 -19h-21c-10 0 -19 9 -19 19v861h-156v-861c0 -10 -9 -19 -19 -19h-20c-10 0 -19 9 -19 19v501h-44z"></glyph><glyph glyph-name="brokenbar.case" d="M102 463c-10 0 -19 8 -19 18v330c0 11 9 19 19 19h7c10 0 18 -8 18 -19v-330c0 -10 -9 -18 -19 -18h-6zM83 181c0 11 9 19 19 19h7c10 0 18 -8 18 -19v-331c0 -10 -9 -18 -19 -18h-6c-10 0 -19 8 -19 18v331z"></glyph><glyph glyph-name="copyright" unicode="©" d="M63 350c0 198 161 360 359 360s360 -162 360 -360s-162 -359 -360 -359s-359 161 -359 359zM123 350c0 -165 134 -299 299 -299c166 0 299 134 299 299c0 166 -133 299 -299 299c-165 0 -299 -133 -299 -299zM244 348c0 105 84 188 187 188c40 0 82 -12 115 -38 c9 -8 10 -20 2 -29l-14 -18c-8 -11 -19 -6 -27 -1c-24 16 -49 23 -74 23c-69 0 -119 -56 -119 -122c0 -69 50 -122 119 -122c25 0 50 8 71 22c11 7 21 9 29 -1l16 -19c7 -8 7 -20 -1 -28c-35 -30 -74 -42 -117 -42c-103 0 -187 84 -187 187z"></glyph><glyph glyph-name="registered" unicode="®" d="M63 350c0 198 161 360 359 360s360 -162 360 -360s-162 -359 -360 -359s-359 161 -359 359zM123 350c0 -165 134 -299 299 -299c166 0 299 134 299 299c0 166 -133 299 -299 299c-165 0 -299 -133 -299 -299zM297 187v328c0 10 8 19 19 19h142c62 0 123 -37 123 -112 s-53 -102 -81 -109c20 -39 40 -79 60 -118c7 -12 -3 -27 -17 -27h-34c-8 0 -15 8 -18 14l-56 125h-74v-120c0 -10 -8 -19 -19 -19h-26c-11 0 -19 9 -19 19zM361 365h97c37 0 60 26 60 57c0 34 -23 57 -60 57h-97v-114z"></glyph><glyph glyph-name="trademark" unicode="™" d="M351 398c-13 0 -21 11 -19 23l52 269c2 8 10 15 19 15h4c6 0 15 -6 17 -11l81 -212l82 212c2 5 11 11 17 11h4c8 0 17 -7 19 -15l53 -270c2 -12 -7 -22 -19 -22h-12c-9 0 -17 8 -19 17l-34 165l-72 -176c-2 -5 -10 -9 -16 -9h-6c-5 0 -15 4 -17 10l-70 175l-35 -166 c-2 -8 -11 -16 -19 -16h-10zM178 398c-11 0 -19 9 -19 19v234h-70c-10 0 -19 8 -19 19v11c0 10 9 19 19 19h191c11 0 19 -9 19 -19v-11c0 -11 -8 -19 -19 -19h-70v-234c0 -10 -9 -19 -19 -19h-13z"></glyph><glyph glyph-name="currency" unicode="¤" d="M106 176l-20 19c-7 7 -7 20 0 27l41 41c-13 21 -19 45 -19 69s6 47 19 69l-41 41c-7 7 -7 20 0 27l20 19c7 7 20 7 27 0l41 -41c21 13 46 20 70 20c23 0 47 -6 68 -19l42 42c7 7 19 6 26 -1l20 -20c7 -7 7 -19 0 -26l-41 -41c13 -21 19 -46 19 -70s-6 -49 -19 -70l41 -41 c7 -7 7 -19 0 -26l-20 -20c-7 -7 -19 -8 -26 -1l-42 42c-21 -12 -45 -19 -69 -19s-48 7 -69 20l-41 -41c-7 -7 -20 -7 -27 0zM243 260c40 0 72 32 72 72s-32 72 -72 72s-72 -32 -72 -72s32 -72 72 -72z"></glyph><glyph glyph-name="Euro" unicode="€" d="M413 253h-230c23 -113 85 -190 173 -190c75 0 109 21 155 60c7 6 17 8 24 0l24 -27c7 -8 6 -20 -1 -27c-57 -54 -122 -79 -201 -79c-131 0 -229 103 -256 263h-55c-10 0 -18 9 -18 19v7c0 10 8 19 18 19h49c-1 16 -2 33 -2 51v24h-47c-10 0 -18 9 -18 19v7 c0 10 8 19 18 19h51c20 157 111 292 270 292c88 0 139 -30 185 -78c8 -8 9 -19 2 -28l-20 -27c-8 -10 -21 -11 -33 1c-36 36 -66 60 -135 60c-106 0 -170 -101 -187 -220h274c11 0 19 -9 19 -19v-8c0 -10 -8 -18 -19 -18h-279v-23c0 -18 1 -35 2 -52h237c11 0 19 -9 19 -19 v-8c0 -10 -8 -18 -19 -18z"></glyph><glyph glyph-name="cent" unicode="¢" d="M67 230c0 136 108 242 234 242c5 0 11 0 16 -1l13 48c3 11 16 19 27 14l8 -2c11 -2 19 -13 15 -26l-12 -43c39 -12 73 -34 101 -66c9 -11 7 -24 -4 -33l-12 -11c-19 -16 -24 -6 -33 4c-18 19 -42 33 -69 41l-92 -336c12 -4 25 -5 38 -5c70 0 100 36 126 66 c13 15 26 11 39 -2l6 -6c10 -10 14 -20 6 -32c-35 -51 -97 -93 -174 -93c-20 0 -40 3 -58 7l-31 -115c-3 -11 -15 -19 -26 -15l-9 3c-11 4 -17 13 -14 25l32 120c-76 38 -127 118 -127 216zM142 231c0 -59 28 -115 71 -147l86 321c-88 -1 -157 -82 -157 -174z"></glyph><glyph glyph-name="sterling" unicode="£" d="M129 19v18c34 64 46 125 46 181c0 27 -3 52 -7 76h-44c-10 0 -18 9 -18 19v7c0 10 8 19 18 19h32c-5 25 -32 91 -32 166c0 126 92 205 209 205c86 0 142 -49 167 -71c8 -6 9 -18 2 -26l-21 -26c-11 -14 -21 -11 -29 -1c0 0 -56 58 -123 58c-77 0 -135 -56 -135 -140 c0 -77 30 -146 33 -165h164c11 0 19 -9 19 -19v-8c0 -10 -8 -18 -19 -18h-153c3 -18 6 -43 6 -71c0 -52 -8 -115 -28 -159h250c10 0 18 -8 18 -19v-26c0 -10 -8 -19 -18 -19h-318c-10 0 -19 9 -19 19z"></glyph><glyph glyph-name="florin" unicode="ƒ" d="M111 -79v419h-61c-11 0 -19 9 -19 19v22c0 11 8 19 19 19h61v140c0 116 67 170 153 170c55 0 92 -24 110 -41c7 -6 8 -16 4 -23l-16 -26c-6 -10 -16 -9 -26 -1c-13 10 -42 29 -73 29c-46 0 -83 -31 -83 -108v-140h116c11 0 19 -8 19 -19v-22c0 -10 -8 -19 -19 -19h-116 v-419c0 -116 -67 -170 -153 -170c-55 0 -92 24 -110 41c-7 6 -8 16 -4 23l16 26c6 10 16 9 26 1c13 -10 48 -29 73 -29c46 0 83 31 83 108z"></glyph><glyph glyph-name="yen" unicode="¥" d="M129 123c-10 0 -18 9 -18 19v7c0 10 8 19 18 19h131v75h-131c-10 0 -18 9 -18 19v7c0 10 8 19 18 19h131v49l-241 334c-8 13 0 29 16 29h47c7 0 13 -5 16 -9l202 -279l202 279c3 4 9 9 16 9h47c16 0 24 -16 16 -29l-244 -333v-50h129c11 0 19 -9 19 -19v-8 c0 -10 -8 -18 -19 -18h-129v-75h129c11 0 19 -9 19 -19v-8c0 -10 -8 -18 -19 -18h-129v-104c0 -10 -9 -19 -19 -19h-39c-11 0 -19 9 -19 19v104h-131z"></glyph><glyph glyph-name="ordfeminine" unicode="ª" d="M138 404c-51 0 -89 38 -89 97c0 55 41 96 116 96c31 0 60 -10 60 -10c0 54 -5 77 -45 77c-41 0 -72 -13 -86 -18c-7 -2 -13 4 -15 11l-5 18c-2 8 1 12 7 15c4 3 42 20 103 20c94 0 90 -67 90 -132v-152c0 -8 -6 -14 -13 -14h-18c-8 0 -10 4 -12 10l-6 21 c-16 -15 -41 -39 -87 -39zM144 451c34 0 66 22 79 38v56c-10 5 -31 13 -61 13c-38 0 -68 -23 -68 -56c0 -29 21 -51 50 -51z"></glyph><glyph glyph-name="ordmasculine" unicode="º" d="M176 394c-79 0 -124 59 -124 157c0 99 45 158 124 158s124 -59 124 -158c0 -98 -45 -157 -124 -157zM176 442c44 0 69 39 69 109s-25 110 -69 110s-69 -40 -69 -110s25 -109 69 -109z"></glyph><glyph glyph-name="onesuperior" unicode="¹" d="M91 504c-6 0 -10 4 -10 9v210l-41 -11c-5 -1 -9 0 -10 4l-5 17c-1 5 -1 7 3 11l70 56h28c6 0 9 -4 9 -9v-278c0 -5 -4 -9 -9 -9h-35z"></glyph><glyph glyph-name="twosuperior" unicode="²" d="M43 504c-5 0 -10 2 -10 9v14l127 133c20 22 32 38 32 56c0 21 -16 47 -57 47c-22 0 -46 -14 -62 -30c-5 -5 -10 -2 -12 0l-20 21c-3 3 -4 8 0 11c0 0 38 45 97 45c72 0 108 -40 108 -89c0 -32 -20 -60 -49 -90l-81 -83h121c6 0 9 -4 9 -10v-25c0 -4 -1 -9 -9 -9h-194z "></glyph><glyph glyph-name="threesuperior" unicode="³" d="M137 494c-62 0 -92 29 -103 41c-3 3 -3 8 1 11l21 20c5 3 9 3 13 -1c3 -2 32 -26 66 -26c31 0 60 18 60 45c0 25 -22 48 -73 48h-31c-5 0 -10 3 -10 9v25c0 6 4 9 10 9h31c45 0 65 20 65 44c0 27 -26 45 -54 45c-29 0 -46 -14 -56 -24c-3 -3 -8 -4 -13 0l-20 18 c-4 3 -4 9 0 12c0 0 38 40 93 40c58 0 105 -32 105 -83c0 -34 -23 -61 -46 -70v-2c24 -9 55 -36 55 -75c0 -49 -45 -86 -114 -86z"></glyph><glyph glyph-name="fraction" unicode="⁄" d="M-88 10c-2 -4 -8 -10 -17 -10h-14c-15 0 -24 14 -17 27l343 663c4 7 9 10 17 10h16c15 0 24 -14 17 -27z"></glyph><glyph glyph-name="uni2215" unicode="∕" d="M-88 10c-2 -4 -8 -10 -17 -10h-14c-15 0 -24 14 -17 27l343 663c4 7 9 10 17 10h16c15 0 24 -14 17 -27z"></glyph><glyph glyph-name="onehalf" unicode="½" d="M99 27l343 663c4 7 9 10 17 10h16c15 0 24 -14 17 -27l-345 -663c-2 -4 -8 -10 -17 -10h-14c-15 0 -24 14 -17 27zM113 404c-6 0 -10 4 -10 9v210l-41 -11c-5 -1 -9 0 -10 4l-5 17c-1 5 -1 7 3 11l70 56h28c6 0 9 -4 9 -9v-278c0 -5 -4 -9 -9 -9h-35zM356 9v14l127 133 c20 22 32 38 32 56c0 21 -16 47 -57 47c-22 0 -46 -14 -62 -30c-5 -5 -10 -2 -12 0l-20 21c-3 3 -4 8 0 11c0 0 38 45 97 45c72 0 108 -40 108 -89c0 -32 -20 -60 -49 -90l-81 -83h121c6 0 9 -4 9 -10v-25c0 -4 -1 -9 -9 -9h-194c-5 0 -10 2 -10 9z"></glyph><glyph glyph-name="onethird" unicode="⅓" d="M98 27l343 663c4 7 9 10 17 10h16c15 0 24 -14 17 -27l-345 -663c-2 -4 -8 -10 -17 -10h-14c-15 0 -24 14 -17 27zM112 404c-6 0 -10 4 -10 9v210l-41 -11c-5 -1 -9 0 -10 4l-5 17c-1 5 -1 7 3 11l70 56h28c6 0 9 -4 9 -9v-278c0 -5 -4 -9 -9 -9h-35zM358 31 c-3 3 -3 8 1 11l21 20c5 3 9 3 13 -1c3 -2 32 -26 66 -26c31 0 60 18 60 45c0 25 -22 48 -73 48h-31c-5 0 -10 3 -10 9v25c0 6 4 9 10 9h31c45 0 65 20 65 44c0 27 -26 45 -54 45c-29 0 -46 -14 -56 -24c-3 -3 -8 -4 -13 0l-20 18c-4 3 -4 9 0 12c0 0 38 40 93 40 c58 0 105 -32 105 -83c0 -34 -24 -61 -47 -70v-2c24 -9 56 -36 56 -75c0 -49 -45 -86 -114 -86c-62 0 -92 29 -103 41z"></glyph><glyph glyph-name="onequarter" unicode="¼" d="M99 27l343 663c4 7 9 10 17 10h16c15 0 24 -14 17 -27l-345 -663c-2 -4 -8 -10 -17 -10h-14c-15 0 -24 14 -17 27zM113 404c-6 0 -10 4 -10 9v210l-41 -11c-5 -1 -9 0 -10 4l-5 17c-1 5 -1 7 3 11l70 56h28c6 0 9 -4 9 -9v-278c0 -5 -4 -9 -9 -9h-35zM326 68v32l169 193 c2 2 6 3 8 3h24c5 0 10 -4 10 -9v-185h41c5 0 9 -4 9 -8v-26c0 -4 -4 -8 -9 -8h-41v-51c0 -5 -5 -9 -10 -9h-32c-5 0 -10 4 -10 9v50h-150c-5 0 -9 4 -9 9zM381 103h106v118z"></glyph><glyph glyph-name="oneeighth" unicode="⅛" d="M98 27l343 663c4 7 9 10 17 10h16c15 0 24 -14 17 -27l-345 -663c-2 -4 -8 -10 -17 -10h-14c-15 0 -24 14 -17 27zM112 404c-6 0 -10 4 -10 9v210l-41 -11c-5 -1 -9 0 -10 4l-5 17c-1 5 -1 7 3 11l70 56h28c6 0 9 -4 9 -9v-278c0 -5 -4 -9 -9 -9h-35zM373 74 c0 39 41 71 57 78v2c-20 9 -49 35 -49 70c0 50 44 82 102 82s103 -32 103 -82c0 -34 -30 -60 -50 -70v-2c22 -10 58 -39 58 -78c0 -49 -43 -84 -112 -84c-66 0 -109 35 -109 84zM434 221c0 -22 15 -39 49 -45c34 6 50 24 50 45c0 24 -22 42 -51 42c-27 0 -48 -18 -48 -42z M427 77c0 -27 27 -44 56 -44c31 0 57 17 57 44c0 22 -20 44 -57 51c-36 -7 -56 -29 -56 -51z"></glyph><glyph glyph-name="twothirds" unicode="⅔" d="M61 404c-5 0 -10 2 -10 9v14l127 133c20 22 32 38 32 56c0 21 -16 47 -57 47c-22 0 -46 -14 -62 -30c-5 -5 -10 -2 -12 0l-20 21c-3 3 -4 8 0 11c0 0 38 45 97 45c72 0 108 -40 108 -89c0 -32 -20 -60 -49 -90l-81 -83h121c6 0 9 -4 9 -10v-25c0 -4 -1 -9 -9 -9h-194z M154 27l343 663c4 7 9 10 17 10h16c15 0 24 -14 17 -27l-345 -663c-2 -4 -8 -10 -17 -10h-14c-15 0 -24 14 -17 27zM414 31c-3 3 -3 8 1 11l21 20c5 3 9 3 13 -1c3 -2 32 -26 66 -26c31 0 60 18 60 45c0 25 -22 48 -73 48h-31c-5 0 -10 3 -10 9v25c0 6 4 9 10 9h31 c45 0 65 20 65 44c0 27 -26 45 -54 45c-29 0 -46 -14 -56 -24c-3 -3 -8 -4 -13 0l-20 18c-4 3 -4 9 0 12c0 0 38 40 93 40c58 0 105 -32 105 -83c0 -34 -24 -61 -47 -70v-2c24 -9 56 -36 56 -75c0 -49 -45 -86 -114 -86c-62 0 -92 29 -103 41z"></glyph><glyph glyph-name="threequarters" unicode="¾" d="M156 394c-62 0 -92 29 -103 41c-3 3 -3 8 1 11l21 20c5 3 9 3 13 -1c3 -2 32 -26 66 -26c31 0 60 18 60 45c0 25 -22 48 -73 48h-31c-5 0 -10 3 -10 9v25c0 6 4 9 10 9h31c45 0 65 20 65 44c0 27 -26 45 -54 45c-29 0 -46 -14 -56 -24c-3 -3 -8 -4 -13 0l-20 18 c-4 3 -4 9 0 12c0 0 38 40 93 40c58 0 105 -32 105 -83c0 -34 -25 -62 -48 -71v-2c24 -9 57 -35 57 -74c0 -49 -45 -86 -114 -86zM143 27l343 663c4 7 9 10 17 10h16c15 0 24 -14 17 -27l-345 -663c-2 -4 -8 -10 -17 -10h-14c-15 0 -24 14 -17 27zM370 68v32l169 193 c2 2 6 3 8 3h24c5 0 10 -4 10 -9v-185h41c5 0 9 -4 9 -8v-26c0 -4 -4 -8 -9 -8h-41v-51c0 -5 -5 -9 -10 -9h-32c-5 0 -10 4 -10 9v50h-150c-5 0 -9 4 -9 9zM425 103h106v118z"></glyph><glyph glyph-name="threeeighths" unicode="⅜" d="M154 394c-62 0 -92 29 -103 41c-3 3 -3 8 1 11l21 20c5 3 9 3 13 -1c3 -2 32 -26 66 -26c31 0 60 18 60 45c0 25 -22 48 -73 48h-31c-5 0 -10 3 -10 9v25c0 6 4 9 10 9h31c45 0 65 20 65 44c0 27 -26 45 -54 45c-29 0 -46 -14 -56 -24c-3 -3 -8 -4 -13 0l-20 18 c-4 3 -4 9 0 12c0 0 38 40 93 40c58 0 105 -32 105 -83c0 -34 -24 -61 -47 -70v-2c24 -9 56 -36 56 -75c0 -49 -45 -86 -114 -86zM141 27l343 663c4 7 9 10 17 10h16c15 0 24 -14 17 -27l-345 -663c-2 -4 -8 -10 -17 -10h-14c-15 0 -24 14 -17 27zM416 74c0 39 41 71 57 78 v2c-20 9 -49 35 -49 70c0 50 44 82 102 82s103 -32 103 -82c0 -34 -30 -60 -50 -70v-2c22 -10 58 -39 58 -78c0 -49 -43 -84 -112 -84c-66 0 -109 35 -109 84zM477 221c0 -22 15 -39 49 -45c34 6 50 24 50 45c0 24 -22 42 -51 42c-27 0 -48 -18 -48 -42zM470 77 c0 -27 27 -44 56 -44c31 0 57 17 57 44c0 22 -20 44 -57 51c-36 -7 -56 -29 -56 -51z"></glyph><glyph glyph-name="fiveeighths" unicode="⅝" d="M144 27l343 663c4 7 9 10 17 10h16c15 0 24 -14 17 -27l-345 -663c-2 -4 -8 -10 -17 -10h-14c-15 0 -24 14 -17 27zM155 394c-54 0 -85 24 -98 38c-6 7 -7 10 -1 15l21 20c4 3 8 4 12 0c3 -3 32 -27 68 -27c38 0 64 28 64 57c0 30 -22 54 -66 54h-77c-10 0 -15 8 -15 16 v124c0 5 4 9 9 9h156c5 0 9 -4 9 -9v-27c0 -4 -4 -8 -9 -8h-117v-60h48c73 0 115 -39 115 -98c0 -57 -50 -104 -119 -104zM419 74c0 39 41 71 57 78v2c-20 9 -49 35 -49 70c0 50 44 82 102 82s103 -32 103 -82c0 -34 -30 -60 -50 -70v-2c22 -10 58 -39 58 -78 c0 -49 -43 -84 -112 -84c-66 0 -109 35 -109 84zM480 221c0 -22 15 -39 49 -45c34 6 50 24 50 45c0 24 -22 42 -51 42c-27 0 -48 -18 -48 -42zM473 77c0 -27 27 -44 56 -44c31 0 57 17 57 44c0 22 -20 44 -57 51c-36 -7 -56 -29 -56 -51z"></glyph><glyph glyph-name="seveneighths" unicode="⅞" d="M111 27l343 663c4 7 9 10 17 10h16c15 0 24 -14 17 -27l-345 -663c-2 -4 -8 -10 -17 -10h-14c-15 0 -24 14 -17 27zM77 404c-6 0 -9 1 -9 7v7l132 237h-143c-5 0 -9 4 -9 9v27c0 5 4 9 9 9h201c5 0 9 -4 9 -9v-11l-143 -267c-4 -7 -7 -9 -13 -9h-34zM386 74 c0 39 41 71 57 78v2c-20 9 -49 35 -49 70c0 50 44 82 102 82s103 -32 103 -82c0 -34 -30 -60 -50 -70v-2c22 -10 58 -39 58 -78c0 -49 -43 -84 -112 -84c-66 0 -109 35 -109 84zM447 221c0 -22 15 -39 49 -45c34 6 50 24 50 45c0 24 -22 42 -51 42c-27 0 -48 -18 -48 -42z M440 77c0 -27 27 -44 56 -44c31 0 57 17 57 44c0 22 -20 44 -57 51c-36 -7 -56 -29 -56 -51z"></glyph><glyph glyph-name="perthousand" unicode="‰" d="M184 441c-75 0 -135 60 -135 135s60 135 135 135c74 0 135 -60 135 -135s-61 -135 -135 -135zM142 27l343 663c4 7 9 10 17 10h16c15 0 24 -14 17 -27l-345 -663c-2 -4 -8 -10 -17 -10h-14c-15 0 -24 14 -17 27zM184 498c41 0 76 34 76 78c0 41 -35 76 -76 76 c-44 0 -78 -35 -78 -76c0 -44 34 -78 78 -78zM675 124c0 75 60 135 135 135c74 0 135 -60 135 -135s-61 -135 -135 -135c-75 0 -135 60 -135 135zM365 124c0 75 60 135 135 135c74 0 135 -60 135 -135s-61 -135 -135 -135c-75 0 -135 60 -135 135zM732 124 c0 -44 34 -78 78 -78c41 0 76 34 76 78c0 41 -35 76 -76 76c-44 0 -78 -35 -78 -76zM422 124c0 -44 34 -78 78 -78c41 0 76 34 76 78c0 41 -35 76 -76 76c-44 0 -78 -35 -78 -76z"></glyph><glyph glyph-name="minus" unicode="−" d="M110 314c-10 0 -19 9 -19 19v28c0 10 9 19 19 19h381c10 0 18 -9 18 -19v-28c0 -10 -8 -19 -18 -19h-381z"></glyph><glyph glyph-name="plusminus" unicode="±" d="M267 267v117h-157c-10 0 -19 9 -19 19v28c0 10 9 19 19 19h157v148c0 10 9 18 19 18h28c10 0 19 -8 19 -18v-148h158c10 0 18 -9 18 -19v-28c0 -10 -8 -19 -18 -19h-158v-117c0 -10 -9 -18 -19 -18h-28c-10 0 -19 8 -19 18zM90 80v28c0 10 9 19 19 19h381 c10 0 18 -9 18 -19v-28c0 -10 -8 -19 -18 -19h-381c-10 0 -19 9 -19 19z"></glyph><glyph glyph-name="multiply" unicode="×" d="M162 190l-20 20c-7 7 -7 19 0 26l111 111l-111 111c-7 7 -7 20 0 27l19 20c7 7 20 7 27 0l111 -111l112 112c7 7 19 6 26 -1l20 -20c7 -7 8 -19 1 -26l-112 -112l112 -111c7 -8 6 -20 -1 -27l-20 -19c-7 -7 -19 -8 -26 -1l-112 112l-111 -111c-7 -7 -19 -7 -26 0z"></glyph><glyph glyph-name="divide" unicode="÷" d="M297 472c-31 0 -57 26 -57 57c0 32 26 57 57 57c32 0 57 -25 57 -57c0 -31 -25 -57 -57 -57zM110 314c-10 0 -19 9 -19 19v28c0 10 9 19 19 19h381c10 0 18 -9 18 -19v-28c0 -10 -8 -19 -18 -19h-381zM240 171c0 32 26 57 57 57c32 0 57 -25 57 -57 c0 -31 -25 -57 -57 -57c-31 0 -57 26 -57 57z"></glyph><glyph glyph-name="notequal" unicode="≠" d="M203 57c-10 4 -15 15 -10 24l27 59h-70c-11 0 -19 9 -19 19v31c0 10 8 19 19 19h102l67 142h-169c-11 0 -19 9 -19 19v30c0 10 8 19 19 19h200l36 76c4 10 16 14 25 9l6 -3c10 -4 15 -15 9 -24l-27 -58h50c11 0 19 -9 19 -19v-30c0 -10 -8 -19 -19 -19h-82l-66 -142h148 c11 0 19 -9 19 -19v-31c0 -10 -8 -19 -19 -19h-180l-36 -77c-3 -10 -15 -13 -25 -9z"></glyph><glyph glyph-name="approxequal" unicode="≈" d="M147 326l-21 16c-7 5 -7 15 -2 22c0 0 39 82 110 82c40 0 69 -25 82 -36c11 -9 31 -25 53 -25c37 0 56 34 64 51c4 9 15 9 22 4l22 -16c7 -5 7 -15 2 -22c0 0 -39 -82 -110 -82c-36 0 -70 25 -82 35s-30 26 -53 26c-37 0 -57 -34 -65 -51c-4 -9 -15 -9 -22 -4zM148 122 l-22 16c-7 5 -7 15 -2 22c0 0 39 82 110 82c40 0 69 -25 82 -36c11 -9 31 -25 53 -25c37 0 56 34 64 51c4 9 15 9 22 4l22 -16c7 -5 7 -15 2 -22c0 0 -39 -82 -110 -82c-36 0 -70 25 -82 35s-30 26 -53 26c-37 0 -56 -34 -64 -51c-4 -9 -15 -9 -22 -4z"></glyph><glyph glyph-name="lessequal" unicode="≤" d="M97 382c-7 5 -10 9 -10 17v5c0 6 3 11 10 16l384 194c10 5 18 1 18 -12v-41c0 -5 -2 -11 -8 -15l-303 -144l303 -141c6 -4 8 -10 8 -15v-41c0 -13 -9 -17 -18 -12zM103 61c-10 0 -19 9 -19 19v28c0 10 9 19 19 19h381c10 0 18 -9 18 -19v-28c0 -10 -8 -19 -18 -19h-381z "></glyph><glyph glyph-name="greaterequal" unicode="≥" d="M118 193c-9 -5 -18 -1 -18 12v41c0 5 2 11 8 15l303 141l-303 144c-6 4 -8 10 -8 15v41c0 13 8 17 18 12l384 -194c7 -5 10 -10 10 -16v-5c0 -8 -3 -12 -10 -17zM115 61c-10 0 -18 9 -18 19v28c0 10 8 19 18 19h381c10 0 19 -9 19 -19v-28c0 -10 -9 -19 -19 -19h-381z "></glyph><glyph glyph-name="logicalnot" unicode="¬" d="M101 314c-10 0 -19 9 -19 19v28c0 10 9 19 19 19h380c11 0 19 -10 19 -19v-204c0 -10 -9 -18 -19 -18h-28c-10 0 -19 8 -19 18v157h-333z"></glyph><glyph glyph-name="Delta" unicode="∆" d="M63 0c-26 0 -29 17 -18 39l298 662c3 5 8 9 14 9h5c5 0 11 -3 14 -9l297 -664c7 -15 10 -37 -18 -37h-592zM138 71h439l-217 502h-2z"></glyph><glyph glyph-name="uni0394" unicode="Δ" d="M63 0c-26 0 -29 17 -18 39l298 662c3 5 8 9 14 9h5c5 0 11 -3 14 -9l297 -664c7 -15 10 -37 -18 -37h-592zM138 71h439l-217 502h-2z"></glyph><glyph glyph-name="Omega" unicode="Ω" d="M77 15v41c0 8 7 15 15 15h111c-91 54 -146 163 -146 281c0 200 160 358 360 358s360 -158 360 -358c0 -118 -55 -227 -145 -281h111c8 0 15 -7 15 -15v-41c0 -8 -7 -15 -15 -15h-249c-8 0 -14 7 -14 15v29c0 14 6 17 17 22c122 38 210 154 210 283 c0 157 -133 290 -290 290s-289 -133 -289 -290c0 -129 88 -245 210 -283c10 -5 16 -8 16 -22v-29c0 -8 -5 -15 -14 -15h-248c-8 0 -15 7 -15 15z"></glyph><glyph glyph-name="uni03A9" unicode="Ω" d="M77 15v41c0 8 7 15 15 15h111c-91 54 -146 163 -146 281c0 200 160 358 360 358s360 -158 360 -358c0 -118 -55 -227 -145 -281h111c8 0 15 -7 15 -15v-41c0 -8 -7 -15 -15 -15h-249c-8 0 -14 7 -14 15v29c0 14 6 17 17 22c122 38 210 154 210 283 c0 157 -133 290 -290 290s-289 -133 -289 -290c0 -129 88 -245 210 -283c10 -5 16 -8 16 -22v-29c0 -8 -5 -15 -14 -15h-248c-8 0 -15 7 -15 15z"></glyph><glyph glyph-name="mu" unicode="µ" d="M90 -216v656c0 11 9 22 22 22h30c12 0 22 -11 22 -22v-244c0 -92 30 -140 97 -140c88 0 131 67 131 67v317c0 11 9 22 21 22h31c11 0 21 -11 21 -22v-418c0 -12 -10 -22 -21 -22h-16c-13 0 -18 8 -21 20l-9 29s-47 -60 -143 -60c-38 0 -68 7 -91 20v-225 c0 -12 -11 -22 -22 -22h-30c-12 0 -22 10 -22 22z"></glyph><glyph glyph-name="uni03BC" unicode="μ" d="M90 -216v656c0 11 9 22 22 22h30c12 0 22 -11 22 -22v-244c0 -92 30 -140 97 -140c88 0 131 67 131 67v317c0 11 9 22 21 22h31c11 0 21 -11 21 -22v-418c0 -12 -10 -22 -21 -22h-16c-13 0 -18 8 -21 20l-9 29s-47 -60 -143 -60c-38 0 -68 7 -91 20v-225 c0 -12 -11 -22 -22 -22h-30c-12 0 -22 10 -22 22z"></glyph><glyph glyph-name="pi" unicode="π" d="M157 17v381h-117c-11 0 -17 9 -17 16v31c0 9 8 17 17 17h599c10 0 18 -7 18 -16v-33c0 -8 -7 -15 -18 -15h-117v-381c0 -10 -7 -17 -16 -17h-41c-9 0 -17 8 -17 17v381h-218v-381c0 -10 -9 -17 -18 -17h-39c-8 0 -16 8 -16 17z"></glyph><glyph glyph-name="degree" unicode="°" d="M182 440c-75 0 -135 60 -135 135s60 135 135 135c74 0 135 -60 135 -135s-61 -135 -135 -135zM182 493c41 0 80 39 80 82c0 41 -39 80 -80 80c-43 0 -82 -39 -82 -80c0 -43 39 -82 82 -82z"></glyph><glyph glyph-name="afii61289" unicode="ℓ" d="M104 148c0 26 3 48 7 72c-19 -6 -40 -11 -52 -13c-10 -1 -14 1 -16 9l-4 22c-3 10 1 17 13 19c23 4 49 9 70 16c6 31 12 62 18 94c43 218 102 344 202 344c68 0 108 -52 108 -132c0 -176 -139 -286 -286 -341c-6 -26 -11 -56 -11 -88c0 -56 20 -110 87 -110 c84 0 139 34 157 45c11 7 16 5 20 -3l10 -16c5 -9 6 -11 -3 -20c-7 -6 -78 -56 -184 -56c-103 0 -136 76 -136 158zM174 289c121 52 227 148 227 290c0 50 -22 81 -59 81c-73 0 -117 -113 -154 -301z"></glyph><glyph glyph-name="estimated" unicode="℮" d="M175 158c53 -77 154 -122 253 -122c75 0 152 32 214 86c6 6 14 9 23 1l12 -14c7 -8 4 -14 -4 -22c-70 -66 -155 -98 -245 -98c-203 0 -363 157 -363 360s160 362 363 362c202 0 362 -159 364 -362c0 -17 -7 -24 -19 -24h-598v-167zM175 371h508v168 c-56 77 -149 124 -255 124c-105 0 -196 -45 -253 -122v-170z"></glyph><glyph glyph-name="eng" unicode="ŋ" d="M392 276c0 88 -30 129 -98 129c-87 0 -142 -64 -142 -64v-319c0 -12 -11 -22 -22 -22h-30c-12 0 -22 10 -22 22v418c0 11 10 22 22 22h16c10 0 16 -4 18 -14l10 -35s59 59 155 59c134 0 167 -87 167 -206v-316c0 -125 -55 -182 -131 -198c-11 -2 -18 2 -21 12l-10 30 c-5 14 3 23 14 27c47 17 74 42 74 122v333z"></glyph><glyph glyph-name="Eng" unicode="Ŋ" d="M667 681v-731c0 -125 -55 -182 -131 -198c-11 -2 -18 2 -21 12l-10 30c-5 14 3 23 14 27c47 17 74 42 74 122v89l-423 531h-1v-544c0 -10 -8 -19 -19 -19h-35c-10 0 -19 9 -19 19v673c0 10 9 18 19 18h25l451 -562h2v533c0 10 8 19 19 19h36c10 0 19 -9 19 -19z"></glyph><glyph glyph-name="infinity" unicode="∞" d="M210 157c-77 0 -139 63 -139 139c0 77 62 139 139 139c47 0 90 -28 114 -66c24 38 67 66 116 66c76 0 139 -62 139 -139c0 -76 -63 -139 -139 -139c-49 0 -92 29 -116 66c-24 -37 -67 -66 -114 -66zM355 296c0 -46 36 -83 83 -83c45 0 83 37 83 83s-38 83 -83 83 c-47 0 -83 -37 -83 -83zM211 213c45 0 83 37 83 83s-38 83 -83 83c-46 0 -83 -37 -83 -83s37 -83 83 -83z"></glyph><glyph glyph-name="partialdiff" unicode="∂" d="M48 226c0 137 105 223 221 223c89 0 157 -46 157 -46c-36 139 -219 241 -265 256c-20 6 -24 18 -19 30l12 25c4 9 12 14 22 10c105 -41 339 -167 339 -441c0 -164 -73 -293 -240 -293c-123 0 -227 106 -227 236zM121 221c0 -88 68 -163 154 -163c121 0 168 113 168 210 c0 16 -1 32 -4 47c0 0 -67 67 -163 67c-86 0 -155 -71 -155 -161z"></glyph><glyph glyph-name="integral" unicode="∫" d="M206 -79v619c0 116 67 170 153 170c55 0 92 -24 110 -41c7 -6 8 -16 4 -23l-16 -26c-6 -10 -16 -9 -26 -1c-13 10 -42 29 -73 29c-46 0 -83 -31 -83 -108v-619c0 -116 -67 -170 -153 -170c-55 0 -92 24 -110 41c-7 6 -8 16 -4 23l16 26c6 10 16 9 26 1 c13 -10 48 -29 73 -29c46 0 83 31 83 108z"></glyph><glyph glyph-name="radical" unicode="√" d="M202 0l-169 383c-5 10 -1 17 10 17h51c7 0 12 -5 13 -8l111 -261h3l248 559c2 5 7 10 15 10h149c8 0 14 -7 14 -15v-35c0 -8 -6 -15 -14 -15h-111l-287 -635c-2 -6 -8 -10 -14 -10h-6c-6 0 -11 6 -13 10z"></glyph><glyph glyph-name="summation" unicode="∑" d="M48 15v20l310 322l-310 310v18c0 8 6 15 14 15h405c8 0 15 -7 15 -15v-42c0 -8 -7 -15 -15 -15h-289l240 -231c5 -5 15 -14 15 -26v-27c0 -10 -10 -19 -15 -25l-240 -248h289c8 0 15 -6 15 -14v-42c0 -8 -7 -15 -15 -15h-405c-8 0 -14 7 -14 15z"></glyph><glyph glyph-name="product" unicode="∏" d="M106 15v670c0 8 7 15 15 15h529c9 0 15 -7 15 -15v-670c0 -8 -6 -15 -15 -15h-48c-8 0 -15 7 -15 15v614h-403v-614c0 -8 -6 -15 -15 -15h-48c-8 0 -15 7 -15 15z"></glyph><glyph glyph-name="lozenge" unicode="◊" d="M71 306c-19 26 -22 35 -20 55c1 16 5 24 22 47l221 293c3 5 8 9 14 9h5c5 0 11 -3 14 -9l220 -292c17 -24 23 -34 22 -56c-1 -18 -7 -27 -22 -50l-220 -306c-3 -6 -9 -8 -14 -8h-5c-6 0 -11 4 -14 8zM309 85h2l188 271l-188 259h-2l-188 -259z"></glyph><glyph glyph-name="uniF8FF" unicode="" d="M50 30v640c0 21 9 30 30 30h439c21 0 30 -9 30 -30v-640c0 -21 -9 -30 -30 -30h-439c-21 0 -30 9 -30 30zM262 314c0 -7 7 -12 14 -12h36c9 0 15 4 15 13v26c0 48 105 63 105 150c0 65 -54 111 -125 111c-87 0 -130 -61 -130 -61c-4 -6 -6 -13 0 -18l22 -22 c6 -4 11 -4 17 0c13 12 36 41 84 41c40 0 61 -25 61 -52c0 -63 -99 -72 -99 -147v-29zM245 156c0 -26 22 -48 48 -48c27 0 49 22 49 48s-22 48 -49 48c-26 0 -48 -22 -48 -48z"></glyph><glyph glyph-name="zero.tf" d="M300 -11c-160 0 -244 136 -244 361c0 226 84 360 244 360s244 -134 244 -360c0 -225 -84 -361 -244 -361zM300 60c113 0 166 102 166 290c0 187 -53 290 -166 290s-166 -103 -166 -290c0 -188 53 -290 166 -290z"></glyph><glyph glyph-name="one.tf" d="M116 0c-11 0 -20 8 -20 19v22c0 12 9 20 20 20h178v531l-140 -82c-9 -5 -17 -7 -23 2l-15 22c-6 9 -3 19 3 23l205 137c6 4 11 6 18 6h9c10 0 19 -9 19 -19v-620h145c12 0 20 -8 20 -20v-22c0 -11 -8 -19 -20 -19h-399z"></glyph><glyph glyph-name="two.tf" d="M186 69v-2h300c11 0 20 -9 20 -20v-27c0 -11 -9 -20 -20 -20h-391c-11 0 -20 9 -20 20v20c0 7 2 12 7 17c80 83 162 175 246 266c71 76 104 137 104 186c0 59 -38 131 -144 131c-64 0 -115 -44 -147 -78c-8 -8 -19 -8 -27 0l-21 20c-6 7 -8 19 -1 27c0 0 73 101 196 101 c147 0 222 -94 222 -199c0 -91 -58 -157 -129 -233z"></glyph><glyph glyph-name="three.tf" d="M74 81c-6 8 -7 19 1 25l28 24c12 8 20 6 28 -5c9 -12 68 -71 157 -71c78 0 151 46 151 130c0 77 -58 133 -185 133h-61c-11 0 -20 6 -20 23v25c0 16 5 22 22 22h60c110 0 166 57 166 125c0 81 -64 130 -138 130c-70 0 -115 -41 -138 -67c-6 -7 -16 -12 -26 -2l-25 19 c-8 7 -7 20 0 27c0 0 77 91 189 91c125 0 216 -72 216 -188c0 -79 -60 -141 -107 -163v-3c49 -20 124 -72 124 -164c0 -117 -89 -202 -232 -202c-126 0 -187 66 -210 91z"></glyph><glyph glyph-name="four.tf" d="M60 159c-11 0 -19 9 -19 19v28c0 7 2 12 6 18l338 470c9 13 12 16 27 16h16c11 0 20 -9 20 -20v-468h70c12 0 20 -8 20 -18v-26c0 -10 -8 -19 -20 -19h-70v-139c0 -11 -9 -20 -20 -20h-33c-10 0 -19 9 -19 20v139h-316zM115 225v-3h261v355h-1z"></glyph><glyph glyph-name="five.tf" d="M94 75c-14 15 -14 23 -2 35c8 7 15 16 24 23c9 8 17 10 25 -1c11 -15 60 -76 153 -76c99 0 162 79 162 169c0 80 -52 148 -162 148h-157c-20 0 -32 19 -32 36v272c0 10 9 19 20 19h311c11 0 20 -9 20 -19v-30c0 -10 -9 -20 -20 -20h-262v-189h120c155 0 238 -82 238 -216 s-100 -236 -239 -236c-107 0 -169 53 -199 85z"></glyph><glyph glyph-name="six.tf" d="M74 283c0 274 235 393 339 434c11 4 19 -1 23 -10l11 -25c5 -12 1 -24 -18 -30c-47 -15 -229 -110 -265 -249c0 0 68 46 157 46c116 0 221 -86 221 -223c0 -130 -104 -236 -228 -236c-167 0 -240 129 -240 293zM314 58c87 0 155 75 155 163c0 90 -69 161 -156 161 c-95 0 -162 -67 -162 -67c-3 -15 -4 -31 -4 -48c0 -97 47 -209 167 -209z"></glyph><glyph glyph-name="seven.tf" d="M437 627v4h-345c-10 0 -19 10 -19 20v30c0 10 9 19 19 19h426c11 0 18 -7 18 -16c0 -7 -1 -13 -7 -27l-264 -630c-4 -9 -14 -27 -34 -27h-30c-10 0 -19 9 -19 20v1c0 7 1 13 4 19z"></glyph><glyph glyph-name="eight.tf" d="M68 189c0 89 76 151 124 171v4c-46 21 -106 80 -106 159c0 114 90 187 213 187c124 0 214 -73 214 -187c0 -79 -60 -138 -106 -159v-4c48 -20 124 -82 124 -171c0 -112 -82 -199 -233 -199c-147 0 -230 87 -230 199zM300 397c94 9 137 59 137 123c0 77 -60 128 -137 128 c-79 0 -137 -51 -137 -128c0 -64 41 -114 137 -123zM145 182c0 -79 60 -131 153 -131c92 0 156 50 156 131c0 64 -57 128 -154 138c-99 -10 -155 -74 -155 -138z"></glyph><glyph glyph-name="nine.tf" d="M152 21c-5 12 -1 23 18 29c47 16 229 108 265 247c0 0 -68 -47 -156 -47c-117 0 -222 87 -222 224c0 130 104 236 228 236c167 0 240 -130 240 -294c0 -274 -239 -396 -339 -434c-10 -4 -19 2 -23 11zM286 317c96 0 162 67 162 67c3 15 4 31 4 48c0 97 -47 210 -167 210 c-87 0 -155 -75 -155 -164s69 -161 156 -161z"></glyph><glyph glyph-name="zerosuperior" unicode="⁰" d="M163 494c-79 0 -124 59 -124 157c0 99 45 158 124 158s124 -59 124 -158c0 -98 -45 -157 -124 -157zM163 542c44 0 69 39 69 109s-25 110 -69 110s-69 -40 -69 -110s25 -109 69 -109z"></glyph><glyph glyph-name="foursuperior" unicode="⁴" d="M194 504c-5 0 -10 4 -10 9v50h-150c-5 0 -9 4 -9 9v32l169 193c2 2 6 3 8 3h24c5 0 10 -4 10 -9v-185h41c5 0 9 -4 9 -8v-26c0 -4 -4 -8 -9 -8h-41v-51c0 -5 -5 -9 -10 -9h-32zM80 607h106v118z"></glyph><glyph glyph-name="fivesuperior" unicode="⁵" d="M141 494c-54 0 -85 24 -98 38c-6 7 -7 10 -1 15l21 20c4 3 8 4 12 0c3 -3 32 -27 68 -27c38 0 64 28 64 57c0 30 -22 54 -66 54h-77c-10 0 -15 8 -15 16v124c0 5 4 9 9 9h156c5 0 9 -4 9 -9v-27c0 -4 -4 -8 -9 -8h-117v-60h48c73 0 115 -39 115 -98 c0 -57 -50 -104 -119 -104z"></glyph><glyph glyph-name="sixsuperior" unicode="⁶" d="M150 494c-76 0 -114 62 -114 134c0 121 123 175 161 187c5 2 10 -1 12 -6l10 -23c3 -6 0 -11 -9 -13c-23 -7 -99 -41 -116 -94c5 3 34 17 64 17c51 0 102 -33 102 -98c0 -57 -50 -104 -110 -104zM151 541c34 0 60 26 60 57s-28 56 -62 56c-33 0 -58 -22 -66 -34 c1 -33 23 -79 68 -79z"></glyph><glyph glyph-name="sevensuperior" unicode="⁷" d="M59 504c-6 0 -9 1 -9 7v7l132 237h-143c-5 0 -9 4 -9 9v27c0 5 4 9 9 9h201c5 0 9 -4 9 -9v-11l-143 -267c-4 -7 -7 -9 -13 -9h-34z"></glyph><glyph glyph-name="eightsuperior" unicode="⁸" d="M147 494c-66 0 -109 35 -109 84c0 39 41 71 57 78v2c-20 9 -49 35 -49 70c0 50 44 82 102 82s103 -32 103 -82c0 -34 -30 -60 -50 -70v-2c22 -10 58 -39 58 -78c0 -49 -43 -84 -112 -84zM148 680c34 6 50 24 50 45c0 24 -22 42 -51 42c-27 0 -48 -18 -48 -42 c0 -22 15 -39 49 -45zM148 537c31 0 57 17 57 44c0 22 -20 44 -57 51c-36 -7 -56 -29 -56 -51c0 -27 27 -44 56 -44z"></glyph><glyph glyph-name="ninesuperior" unicode="⁹" d="M94 487c-5 -2 -10 1 -12 6l-10 23c-3 6 0 11 9 13c23 7 99 41 116 94c-5 -3 -34 -17 -64 -17c-51 0 -102 33 -102 98c0 57 50 104 110 104c76 0 114 -62 114 -134c0 -121 -123 -175 -161 -187zM142 648c33 0 58 22 66 34c-1 33 -23 79 -68 79c-34 0 -60 -26 -60 -57 s28 -56 62 -56z"></glyph><glyph glyph-name="zeroinferior" unicode="₀" d="M39 -3c0 99 45 158 124 158s124 -59 124 -158c0 -98 -45 -157 -124 -157s-124 59 -124 157zM94 -3c0 -70 25 -109 69 -109s69 39 69 109s-25 110 -69 110s-69 -40 -69 -110z"></glyph><glyph glyph-name="oneinferior" unicode="₁" d="M30 62l-5 17c-1 5 -1 7 3 11l70 56h28c6 0 9 -4 9 -9v-278c0 -5 -4 -9 -9 -9h-35c-6 0 -10 4 -10 9v210l-41 -11c-5 -1 -9 0 -10 4z"></glyph><glyph glyph-name="twoinferior" unicode="₂" d="M61 79l-20 21c-3 3 -4 8 0 11c0 0 38 45 97 45c72 0 108 -40 108 -89c0 -32 -20 -60 -49 -90l-81 -83h121c6 0 9 -4 9 -10v-25c0 -4 -1 -9 -9 -9h-194c-5 0 -10 2 -10 9v14l127 133c20 22 32 38 32 56c0 21 -16 47 -57 47c-22 0 -46 -14 -62 -30c-5 -5 -10 -2 -12 0z"></glyph><glyph glyph-name="threeinferior" unicode="₃" d="M81 12c0 6 4 9 10 9h31c45 0 65 20 65 44c0 27 -26 45 -54 45c-29 0 -46 -14 -56 -24c-3 -3 -8 -4 -13 0l-20 18c-4 3 -4 9 0 12c0 0 38 40 93 40c58 0 105 -32 105 -83c0 -34 -24 -61 -47 -70v-2c24 -9 56 -36 56 -75c0 -49 -45 -86 -114 -86c-62 0 -92 29 -103 41 c-3 3 -3 8 1 11l21 20c5 3 9 3 13 -1c3 -2 32 -26 66 -26c31 0 60 18 60 45c0 25 -22 48 -73 48h-31c-5 0 -10 3 -10 9v25z"></glyph><glyph glyph-name="fourinferior" unicode="₄" d="M25 -50l169 193c2 2 6 3 8 3h24c5 0 10 -4 10 -9v-185h41c5 0 9 -4 9 -8v-26c0 -4 -4 -8 -9 -8h-41v-51c0 -5 -5 -9 -10 -9h-32c-5 0 -10 4 -10 9v50h-150c-5 0 -9 4 -9 9v32zM80 -47h106v118z"></glyph><glyph glyph-name="fiveinferior" unicode="₅" d="M49 13v124c0 5 4 9 9 9h156c5 0 9 -4 9 -9v-27c0 -4 -4 -8 -9 -8h-117v-60h48c73 0 115 -39 115 -98c0 -57 -50 -104 -119 -104c-54 0 -85 24 -98 38c-6 7 -7 10 -1 15l21 20c4 3 8 4 12 0c3 -3 32 -27 68 -27c38 0 64 28 64 57c0 30 -22 54 -66 54h-77 c-10 0 -15 8 -15 16z"></glyph><glyph glyph-name="sixinferior" unicode="₆" d="M37 -26c0 121 123 175 161 187c5 2 10 -1 12 -6l10 -23c3 -6 0 -11 -9 -13c-23 -7 -99 -41 -116 -94c5 3 34 17 64 17c51 0 102 -33 102 -98c0 -57 -50 -104 -110 -104c-76 0 -114 62 -114 134zM84 -34c1 -33 23 -79 68 -79c34 0 60 26 60 57s-28 56 -62 56 c-33 0 -58 -22 -66 -34z"></glyph><glyph glyph-name="seveninferior" unicode="₇" d="M40 101c-5 0 -9 4 -9 9v27c0 5 4 9 9 9h201c5 0 9 -4 9 -9v-11l-143 -267c-4 -7 -7 -9 -13 -9h-34c-6 0 -9 1 -9 7v7l132 237h-143z"></glyph><glyph glyph-name="eightinferior" unicode="₈" d="M39 -76c0 39 41 71 57 78v2c-20 9 -49 35 -49 70c0 50 44 82 102 82s103 -32 103 -82c0 -34 -30 -60 -50 -70v-2c22 -10 58 -39 58 -78c0 -49 -43 -84 -112 -84c-66 0 -109 35 -109 84zM100 71c0 -22 15 -39 49 -45c34 6 50 24 50 45c0 24 -22 42 -51 42 c-27 0 -48 -18 -48 -42zM93 -73c0 -27 27 -44 56 -44c31 0 57 17 57 44c0 22 -20 44 -57 51c-36 -7 -56 -29 -56 -51z"></glyph><glyph glyph-name="nineinferior" unicode="₉" d="M31 50c0 57 50 104 110 104c76 0 114 -62 114 -134c0 -121 -123 -175 -161 -187c-5 -2 -10 1 -12 6l-10 23c-3 6 0 11 9 13c23 7 99 41 116 94c-5 -3 -34 -17 -64 -17c-51 0 -102 33 -102 98zM80 50c0 -31 28 -56 62 -56c33 0 58 22 66 34c-1 33 -23 79 -68 79 c-34 0 -60 -26 -60 -57z"></glyph><glyph glyph-name="zero.denom" d="M54 147c0 99 45 158 124 158s124 -59 124 -158c0 -98 -45 -157 -124 -157s-124 59 -124 157zM178 38c44 0 69 39 69 109s-25 110 -69 110s-69 -40 -69 -110s25 -109 69 -109z"></glyph><glyph glyph-name="one.denom" d="M98 9v210l-41 -11c-5 -1 -9 0 -10 4l-5 17c-1 5 -1 7 3 11l70 56h28c6 0 9 -4 9 -9v-278c0 -5 -4 -9 -9 -9h-35c-6 0 -10 4 -10 9z"></glyph><glyph glyph-name="two.denom" d="M53 9v14l127 133c20 22 32 38 32 56c0 21 -16 47 -57 47c-22 0 -46 -14 -62 -30c-5 -5 -10 -2 -12 0l-20 21c-3 3 -4 8 0 11c0 0 38 45 97 45c72 0 108 -40 108 -89c0 -32 -20 -60 -49 -90l-81 -83h121c6 0 9 -4 9 -10v-25c0 -4 -1 -9 -9 -9h-194c-5 0 -10 2 -10 9z"></glyph><glyph glyph-name="three.denom" d="M55 31c-3 3 -3 8 1 11l21 20c5 3 9 3 13 -1c3 -2 32 -26 66 -26c31 0 60 18 60 45c0 25 -22 48 -73 48h-31c-5 0 -10 3 -10 9v25c0 6 4 9 10 9h31c45 0 65 20 65 44c0 27 -26 45 -54 45c-29 0 -46 -14 -56 -24c-3 -3 -8 -4 -13 0l-20 18c-4 3 -4 9 0 12c0 0 38 40 93 40 c58 0 105 -32 105 -83c0 -34 -24 -61 -47 -70v-2c24 -9 56 -36 56 -75c0 -49 -45 -86 -114 -86c-62 0 -92 29 -103 41z"></glyph><glyph glyph-name="four.denom" d="M44 59c-5 0 -9 4 -9 9v32l169 193c2 2 6 3 8 3h24c5 0 10 -4 10 -9v-185h41c5 0 9 -4 9 -8v-26c0 -4 -4 -8 -9 -8h-41v-51c0 -5 -5 -9 -10 -9h-32c-5 0 -10 4 -10 9v50h-150zM90 103h106v118z"></glyph><glyph glyph-name="five.denom" d="M65 28c-6 7 -7 10 -1 15l21 20c4 3 8 4 12 0c3 -3 32 -27 68 -27c38 0 64 28 64 57c0 30 -22 54 -66 54h-77c-10 0 -15 8 -15 16v124c0 5 4 9 9 9h156c5 0 9 -4 9 -9v-27c0 -4 -4 -8 -9 -8h-117v-60h48c73 0 115 -39 115 -98c0 -57 -50 -104 -119 -104 c-54 0 -85 24 -98 38z"></glyph><glyph glyph-name="six.denom" d="M59 124c0 121 123 175 161 187c5 2 10 -1 12 -6l10 -23c3 -6 0 -11 -9 -13c-23 -7 -99 -41 -116 -94c5 3 34 17 64 17c51 0 102 -33 102 -98c0 -57 -50 -104 -110 -104c-76 0 -114 62 -114 134zM106 116c1 -33 23 -79 68 -79c34 0 60 26 60 57s-28 56 -62 56 c-33 0 -58 -22 -66 -34z"></glyph><glyph glyph-name="seven.denom" d="M76 7v7l132 237h-143c-5 0 -9 4 -9 9v27c0 5 4 9 9 9h201c5 0 9 -4 9 -9v-11l-143 -267c-4 -7 -7 -9 -13 -9h-34c-6 0 -9 1 -9 7z"></glyph><glyph glyph-name="eight.denom" d="M56 74c0 39 41 71 57 78v2c-20 9 -49 35 -49 70c0 50 44 82 102 82s103 -32 103 -82c0 -34 -30 -60 -50 -70v-2c22 -10 58 -39 58 -78c0 -49 -43 -84 -112 -84c-66 0 -109 35 -109 84zM166 176c34 6 50 24 50 45c0 24 -22 42 -51 42c-27 0 -48 -18 -48 -42 c0 -22 15 -39 49 -45zM110 77c0 -27 27 -44 56 -44c31 0 57 17 57 44c0 22 -20 44 -57 51c-36 -7 -56 -29 -56 -51z"></glyph><glyph glyph-name="nine.denom" d="M89 12c-3 6 0 11 9 13c23 7 99 41 116 94c-5 -3 -34 -17 -64 -17c-51 0 -102 33 -102 98c0 57 50 104 110 104c76 0 114 -62 114 -134c0 -121 -123 -175 -161 -187c-5 -2 -10 1 -12 6zM159 144c33 0 58 22 66 34c-1 33 -23 79 -68 79c-34 0 -60 -26 -60 -57 s28 -56 62 -56z"></glyph><glyph glyph-name="zero.num" d="M163 394c-79 0 -124 59 -124 157c0 99 45 158 124 158s124 -59 124 -158c0 -98 -45 -157 -124 -157zM163 442c44 0 69 39 69 109s-25 110 -69 110s-69 -40 -69 -110s25 -109 69 -109z"></glyph><glyph glyph-name="one.num" d="M91 404c-6 0 -10 4 -10 9v210l-41 -11c-5 -1 -9 0 -10 4l-5 17c-1 5 -1 7 3 11l70 56h28c6 0 9 -4 9 -9v-278c0 -5 -4 -9 -9 -9h-35z"></glyph><glyph glyph-name="two.num" d="M43 404c-5 0 -10 2 -10 9v14l127 133c20 22 32 38 32 56c0 21 -16 47 -57 47c-22 0 -46 -14 -62 -30c-5 -5 -10 -2 -12 0l-20 21c-3 3 -4 8 0 11c0 0 38 45 97 45c72 0 108 -40 108 -89c0 -32 -20 -60 -49 -90l-81 -83h121c6 0 9 -4 9 -10v-25c0 -4 -1 -9 -9 -9h-194z "></glyph><glyph glyph-name="three.num" d="M137 394c-62 0 -92 29 -103 41c-3 3 -3 8 1 11l21 20c5 3 9 3 13 -1c3 -2 32 -26 66 -26c31 0 60 18 60 45c0 25 -22 48 -73 48h-31c-5 0 -10 3 -10 9v25c0 6 4 9 10 9h31c45 0 65 20 65 44c0 27 -26 45 -54 45c-29 0 -46 -14 -56 -24c-3 -3 -8 -4 -13 0l-20 18 c-4 3 -4 9 0 12c0 0 38 40 93 40c58 0 105 -32 105 -83c0 -34 -24 -61 -47 -70v-2c24 -9 56 -36 56 -75c0 -49 -45 -86 -114 -86z"></glyph><glyph glyph-name="four.num" d="M194 404c-5 0 -10 4 -10 9v50h-150c-5 0 -9 4 -9 9v32l169 193c2 2 6 3 8 3h24c5 0 10 -4 10 -9v-185h41c5 0 9 -4 9 -8v-26c0 -4 -4 -8 -9 -8h-41v-51c0 -5 -5 -9 -10 -9h-32zM80 507h106v118z"></glyph><glyph glyph-name="five.num" d="M141 394c-54 0 -85 24 -98 38c-6 7 -7 10 -1 15l21 20c4 3 8 4 12 0c3 -3 32 -27 68 -27c38 0 64 28 64 57c0 30 -22 54 -66 54h-77c-10 0 -15 8 -15 16v124c0 5 4 9 9 9h156c5 0 9 -4 9 -9v-27c0 -4 -4 -8 -9 -8h-117v-60h48c73 0 115 -39 115 -98 c0 -57 -50 -104 -119 -104z"></glyph><glyph glyph-name="six.num" d="M150 394c-76 0 -114 62 -114 134c0 121 123 175 161 187c5 2 10 -1 12 -6l10 -23c3 -6 0 -11 -9 -13c-23 -7 -99 -41 -116 -94c5 3 34 17 64 17c51 0 102 -33 102 -98c0 -57 -50 -104 -110 -104zM151 441c34 0 60 26 60 57s-28 56 -62 56c-33 0 -58 -22 -66 -34 c1 -33 23 -79 68 -79z"></glyph><glyph glyph-name="seven.num" d="M59 404c-6 0 -9 1 -9 7v7l132 237h-143c-5 0 -9 4 -9 9v27c0 5 4 9 9 9h201c5 0 9 -4 9 -9v-11l-143 -267c-4 -7 -7 -9 -13 -9h-34z"></glyph><glyph glyph-name="eight.num" d="M147 394c-66 0 -109 35 -109 84c0 39 41 71 57 78v2c-20 9 -49 35 -49 70c0 50 44 82 102 82s103 -32 103 -82c0 -34 -30 -60 -50 -70v-2c22 -10 58 -39 58 -78c0 -49 -43 -84 -112 -84zM148 580c34 6 50 24 50 45c0 24 -22 42 -51 42c-27 0 -48 -18 -48 -42 c0 -22 15 -39 49 -45zM148 437c31 0 57 17 57 44c0 22 -20 44 -57 51c-36 -7 -56 -29 -56 -51c0 -27 27 -44 56 -44z"></glyph><glyph glyph-name="nine.num" d="M94 387c-5 -2 -10 1 -12 6l-10 23c-3 6 0 11 9 13c23 7 99 41 116 94c-5 -3 -34 -17 -64 -17c-51 0 -102 33 -102 98c0 57 50 104 110 104c76 0 114 -62 114 -134c0 -121 -123 -175 -161 -187zM142 548c33 0 58 22 66 34c-1 33 -23 79 -68 79c-34 0 -60 -26 -60 -57 s28 -56 62 -56z"></glyph><glyph glyph-name="a.alt" d="M469 440v-418c0 -12 -11 -22 -23 -22h-18c-10 0 -18 8 -20 19l-6 30s-55 -60 -146 -60c-117 0 -207 110 -207 242s90 241 216 241c87 0 137 -47 137 -47l8 21c4 10 9 16 21 16h15c12 0 23 -11 23 -22zM395 132v217s-47 56 -122 56c-92 0 -149 -84 -149 -174 s57 -175 141 -175c83 0 130 76 130 76z"></glyph><glyph glyph-name="agrave.alt" d="M355 559l-161 67c-8 3 -10 13 -6 21l18 36c5 9 20 7 26 3l150 -84c6 -3 10 -11 6 -19l-10 -22c-4 -8 -9 -8 -23 -2zM469 440v-418c0 -12 -11 -22 -23 -22h-18c-10 0 -18 8 -20 19l-6 30s-55 -60 -146 -60c-117 0 -207 110 -207 242s90 241 216 241c87 0 137 -47 137 -47 l8 21c4 10 9 16 21 16h15c12 0 23 -11 23 -22zM395 132v217s-47 56 -122 56c-92 0 -149 -84 -149 -174s57 -175 141 -175c83 0 130 76 130 76z"></glyph><glyph glyph-name="aacute.alt" d="M201 561l-10 22c-4 8 0 16 6 19l150 84c6 4 21 6 26 -3l18 -36c4 -8 2 -18 -6 -21l-161 -67c-14 -6 -19 -6 -23 2zM469 440v-418c0 -12 -11 -22 -23 -22h-18c-10 0 -18 8 -20 19l-6 30s-55 -60 -146 -60c-117 0 -207 110 -207 242s90 241 216 241c87 0 137 -47 137 -47 l8 21c4 10 9 16 21 16h15c12 0 23 -11 23 -22zM395 132v217s-47 56 -122 56c-92 0 -149 -84 -149 -174s57 -175 141 -175c83 0 130 76 130 76z"></glyph><glyph glyph-name="acircumflex.alt" d="M159 555l-14 18c-5 7 0 15 6 19l120 94c4 3 9 4 13 4c6 0 9 -1 13 -4l120 -94c6 -4 11 -12 6 -19c-9 -12 -17 -36 -37 -22l-102 70l-102 -68c-12 -8 -18 -5 -23 2zM469 440v-418c0 -12 -11 -22 -23 -22h-18c-10 0 -18 8 -20 19l-6 30s-55 -60 -146 -60 c-117 0 -207 110 -207 242s90 241 216 241c87 0 137 -47 137 -47l8 21c4 10 9 16 21 16h15c12 0 23 -11 23 -22zM395 132v217s-47 56 -122 56c-92 0 -149 -84 -149 -174s57 -175 141 -175c83 0 130 76 130 76z"></glyph><glyph glyph-name="atilde.alt" d="M159 575l-18 9c-8 4 -7 15 -4 22c9 18 26 84 92 84c60 0 79 -74 110 -74c28 0 40 34 45 51c3 10 12 13 23 8l16 -8c12 -6 6 -19 4 -26c-10 -29 -34 -81 -89 -81s-82 75 -110 75c-27 0 -37 -29 -44 -50c-3 -10 -12 -17 -25 -10zM469 440v-418c0 -12 -11 -22 -23 -22h-18 c-10 0 -18 8 -20 19l-6 30s-55 -60 -146 -60c-117 0 -207 110 -207 242s90 241 216 241c87 0 137 -47 137 -47l8 21c4 10 9 16 21 16h15c12 0 23 -11 23 -22zM395 132v217s-47 56 -122 56c-92 0 -149 -84 -149 -174s57 -175 141 -175c83 0 130 76 130 76z"></glyph><glyph glyph-name="adieresis.alt" d="M385 585c-26 0 -47 21 -47 47c0 27 21 48 47 48c27 0 48 -21 48 -48c0 -26 -21 -47 -48 -47zM192 585c-26 0 -47 21 -47 47c0 27 21 48 47 48c27 0 48 -21 48 -48c0 -26 -21 -47 -48 -47zM469 440v-418c0 -12 -11 -22 -23 -22h-18c-10 0 -18 8 -20 19l-6 30 s-55 -60 -146 -60c-117 0 -207 110 -207 242s90 241 216 241c87 0 137 -47 137 -47l8 21c4 10 9 16 21 16h15c12 0 23 -11 23 -22zM395 132v217s-47 56 -122 56c-92 0 -149 -84 -149 -174s57 -175 141 -175c83 0 130 76 130 76z"></glyph><glyph glyph-name="amacron.alt" d="M153 583c-11 0 -19 8 -19 18v21c0 11 8 19 19 19h256c11 0 19 -8 19 -19v-21c0 -10 -8 -18 -19 -18h-256zM469 440v-418c0 -12 -11 -22 -23 -22h-18c-10 0 -18 8 -20 19l-6 30s-55 -60 -146 -60c-117 0 -207 110 -207 242s90 241 216 241c87 0 137 -47 137 -47l8 21 c4 10 9 16 21 16h15c12 0 23 -11 23 -22zM395 132v217s-47 56 -122 56c-92 0 -149 -84 -149 -174s57 -175 141 -175c83 0 130 76 130 76z"></glyph><glyph glyph-name="abreve.alt" d="M282 531c-70 0 -126 49 -135 114c-2 11 2 20 14 20h21c11 0 16 -8 19 -17c11 -38 41 -64 81 -64c37 0 68 29 79 64c4 11 10 17 19 17h23c11 0 16 -9 14 -20c-11 -65 -66 -114 -135 -114zM469 440v-418c0 -12 -11 -22 -23 -22h-18c-10 0 -18 8 -20 19l-6 30 s-55 -60 -146 -60c-117 0 -207 110 -207 242s90 241 216 241c87 0 137 -47 137 -47l8 21c4 10 9 16 21 16h15c12 0 23 -11 23 -22zM395 132v217s-47 56 -122 56c-92 0 -149 -84 -149 -174s57 -175 141 -175c83 0 130 76 130 76z"></glyph><glyph glyph-name="aring.alt" d="M469 440v-418c0 -12 -11 -22 -23 -22h-18c-10 0 -18 8 -20 19l-6 30s-55 -60 -146 -60c-117 0 -207 110 -207 242s90 241 216 241c87 0 137 -47 137 -47l8 21c4 10 9 16 21 16h15c12 0 23 -11 23 -22zM395 132v217s-47 56 -122 56c-92 0 -149 -84 -149 -174 s57 -175 141 -175c83 0 130 76 130 76zM276 513c-61 0 -109 48 -109 109s48 109 109 109c60 0 109 -48 109 -109s-49 -109 -109 -109zM276 561c32 0 59 29 59 61s-27 59 -59 59s-61 -27 -61 -59s29 -61 61 -61z"></glyph><glyph glyph-name="aringacute.alt" d="M278 508c-61 0 -109 35 -109 96s48 96 109 96c60 0 109 -35 109 -96s-49 -96 -109 -96zM278 556c32 0 59 16 59 48s-27 46 -59 46s-61 -14 -61 -46s29 -48 61 -48zM184 711l-10 22c-4 8 0 16 6 19l150 65c7 3 21 5 26 -4l18 -36c4 -8 2 -19 -6 -21l-161 -49 c-15 -5 -19 -4 -23 4zM469 440v-418c0 -12 -11 -22 -23 -22h-18c-10 0 -18 8 -20 19l-6 30s-55 -60 -146 -60c-117 0 -207 110 -207 242s90 241 216 241c87 0 137 -47 137 -47l8 21c4 10 9 16 21 16h15c12 0 23 -11 23 -22zM395 132v217s-47 56 -122 56 c-92 0 -149 -84 -149 -174s57 -175 141 -175c83 0 130 76 130 76z"></glyph><glyph glyph-name="aogonek.alt" d="M469 440v-413c0 -15 -10 -23 -18 -27c-40 -21 -104 -70 -104 -131c0 -33 19 -53 51 -53c29 0 55 20 63 26c7 6 15 4 16 -5l1 -34c1 -9 -2 -17 -12 -24c-14 -8 -47 -23 -83 -23c-65 0 -99 44 -99 100c0 78 82 135 124 162l-6 31s-55 -60 -146 -60 c-117 0 -207 110 -207 242s90 241 216 241c87 0 137 -47 137 -47l8 21c4 10 9 16 21 16h15c12 0 23 -11 23 -22zM395 132v217s-47 56 -122 56c-92 0 -149 -84 -149 -174s57 -175 141 -175c83 0 130 76 130 76z"></glyph><glyph glyph-name="parenleft.case" d="M285 -118c-114 6 -236 169 -236 463s122 467 236 473c11 1 17 -2 18 -10l2 -27c2 -9 -3 -16 -10 -17c-126 -25 -176 -223 -176 -419s50 -384 176 -409c7 -1 12 -8 10 -17l-2 -27c-1 -8 -7 -11 -18 -10z"></glyph><glyph glyph-name="parenright.case" d="M44 -118c-11 -1 -17 2 -18 10l-2 27c-2 9 3 16 10 17c126 25 176 213 176 409s-50 394 -176 419c-7 1 -12 8 -10 17l2 27c1 8 7 11 18 10c114 -6 236 -179 236 -473s-122 -457 -236 -463z"></glyph><glyph glyph-name="hyphen.case" d="M87 310c-11 0 -19 8 -19 18v19c0 11 8 19 19 19h209c11 0 19 -8 19 -19v-19c0 -10 -8 -18 -19 -18h-209z"></glyph><glyph glyph-name="bracketleft.case" d="M148 -55h137c10 0 19 -8 19 -18v-26c0 -10 -9 -19 -19 -19h-186c-10 0 -19 9 -19 19v900c0 10 9 19 19 19h186c10 0 19 -9 19 -19v-25c0 -11 -9 -19 -19 -19h-137v-812z"></glyph><glyph glyph-name="bracketright.case" d="M46 -55h137v812h-137c-10 0 -19 8 -19 19v25c0 10 9 19 19 19h186c10 0 19 -9 19 -19v-900c0 -10 -9 -19 -19 -19h-186c-10 0 -19 9 -19 19v26c0 10 9 18 19 18z"></glyph><glyph glyph-name="braceleft.case" d="M115 94v146c0 45 -45 74 -69 78c-8 1 -15 9 -15 17v31c0 8 7 14 15 15c24 4 69 33 69 78v146c0 182 142 225 245 225c10 0 20 -5 20 -17v-19c0 -9 -5 -17 -13 -18c-95 -14 -183 -63 -183 -171v-118c0 -100 -50 -122 -79 -134v-7c29 -12 79 -34 79 -134v-118 c0 -108 88 -156 183 -170c8 -1 13 -6 13 -17v-20c0 -10 -10 -17 -20 -17c-103 0 -245 42 -245 224z"></glyph><glyph glyph-name="bar.case" d="M79 -150v961c0 11 9 19 19 19h7c10 0 18 -8 18 -19v-961c0 -10 -9 -18 -19 -18h-6c-10 0 -19 8 -19 18z"></glyph><glyph glyph-name="braceright.case" d="M219 212c0 100 50 122 79 134v7c-29 12 -79 34 -79 134v118c0 108 -88 157 -183 171c-8 1 -13 9 -13 18v19c0 12 10 17 20 17c103 0 245 -43 245 -225v-146c0 -45 45 -74 69 -78c8 -1 15 -7 15 -15v-31c0 -8 -7 -16 -15 -17c-24 -4 -69 -33 -69 -78v-146 c0 -182 -142 -224 -245 -224c-10 0 -20 7 -20 17v20c0 11 5 16 13 17c95 14 183 62 183 170v118z"></glyph><glyph glyph-name="guilsinglleft.case" d="M156 159l-104 155c-6 8 -4 18 0 24l109 148c5 7 10 12 18 12h14c17 0 23 -15 15 -31l-74 -139l71 -147c7 -16 2 -30 -15 -30h-19c-7 0 -12 4 -15 8z"></glyph><glyph glyph-name="guilsinglright.case" d="M79 151c-17 0 -22 14 -15 30l71 147l-74 139c-8 16 -2 31 15 31h14c8 0 14 -6 18 -12l109 -148c4 -6 6 -16 0 -24l-104 -155c-3 -4 -8 -8 -15 -8h-19z"></glyph><glyph glyph-name="guillemotleft.case" d="M215 314c-6 8 -4 18 0 24l109 148c3 5 10 12 18 12h14c17 0 23 -15 15 -31l-74 -139l71 -147c8 -16 2 -30 -15 -30h-19c-7 0 -12 4 -15 8zM156 159l-104 155c-6 8 -4 18 0 24l109 148c3 5 10 12 18 12h14c17 0 23 -15 15 -31l-74 -139l71 -147c8 -16 2 -30 -15 -30h-19 c-7 0 -12 4 -15 8z"></glyph><glyph glyph-name="guillemotright.case" d="M227 181l71 147l-74 139c-8 16 -2 31 15 31h14c8 0 15 -7 18 -12l109 -148c4 -6 6 -16 0 -24l-104 -155c-3 -4 -8 -8 -15 -8h-19c-17 0 -23 14 -15 30zM79 151c-17 0 -23 14 -15 30l71 147l-74 139c-8 16 -2 31 15 31h14c8 0 15 -7 18 -12l109 -148c4 -6 6 -16 0 -24 l-104 -155c-3 -4 -8 -8 -15 -8h-19z"></glyph><glyph glyph-name="endash.case" d="M84 313c-11 0 -19 8 -19 18v11c0 11 8 19 19 19h369c11 0 19 -8 19 -19v-11c0 -10 -8 -18 -19 -18h-369z"></glyph><glyph glyph-name="emdash.case" d="M84 313c-11 0 -19 8 -19 18v11c0 11 8 19 19 19h589c11 0 19 -8 19 -19v-11c0 -10 -8 -18 -19 -18h-589z"></glyph><glyph glyph-name="bullet.case" d="M182 209c-57 0 -105 48 -105 105c0 60 48 109 105 109c60 0 109 -49 109 -109c0 -57 -49 -105 -109 -105z"></glyph><glyph glyph-name="periodcentered.case" d="M115 296c-30 0 -54 25 -54 54c0 32 24 56 54 56c31 0 55 -24 55 -56c0 -29 -24 -54 -55 -54z"></glyph><glyph glyph-name="brokenbar" unicode="¦" d="M102 393c-10 0 -19 8 -19 18v330c0 11 9 19 19 19h7c10 0 18 -8 18 -19v-330c0 -10 -9 -18 -19 -18h-6zM83 111c0 11 9 19 19 19h7c10 0 18 -8 18 -19v-331c0 -10 -9 -18 -19 -18h-6c-10 0 -19 8 -19 18v331z"></glyph><glyph glyph-name="q" unicode="q" d="M49 231c0 132 90 241 216 241c83 0 138 -47 138 -47l7 21c5 9 10 16 22 16h14c12 0 23 -11 23 -22v-656c0 -12 -11 -22 -23 -22h-28c-12 0 -22 10 -22 22v246s-52 -41 -128 -41c-127 0 -219 107 -219 242zM124 232c0 -100 66 -175 154 -175c64 0 118 38 118 38v253 s-48 56 -123 56c-92 0 -149 -82 -149 -172z"></glyph><glyph glyph-name="gcircumflex.alt" d="M41 71c0 88 74 112 74 112s-36 37 -36 104c0 104 74 185 194 185h195c14 0 22 -9 22 -22v-15c0 -7 -4 -17 -12 -18l-62 -13s51 -25 51 -117c0 -105 -74 -180 -194 -180c-74 0 -112 29 -112 29s-51 -8 -51 -54c0 -29 20 -48 63 -48h169c98 0 171 -26 171 -127 c0 -85 -96 -156 -236 -156c-155 0 -218 62 -218 129c0 64 49 84 63 89v3c-30 8 -81 34 -81 99zM275 173c69 0 118 41 118 118c0 75 -49 114 -118 114c-70 0 -125 -39 -125 -114c0 -77 55 -118 125 -118zM134 -108c0 -46 63 -69 142 -69c76 0 157 25 157 82 c0 41 -29 59 -91 59h-128s-80 -4 -80 -72zM165 555l-14 18c-5 7 0 15 6 19l120 94c4 3 9 4 13 4c6 0 9 -1 13 -4l120 -94c6 -4 11 -12 6 -19c-9 -12 -17 -36 -37 -22l-102 70l-102 -68c-12 -8 -18 -5 -23 2z"></glyph><glyph glyph-name="gbreve.alt" d="M41 71c0 88 74 112 74 112s-36 37 -36 104c0 104 74 185 194 185h195c14 0 22 -9 22 -22v-15c0 -7 -4 -17 -12 -18l-62 -13s51 -25 51 -117c0 -105 -74 -180 -194 -180c-74 0 -112 29 -112 29s-51 -8 -51 -54c0 -29 20 -48 63 -48h169c98 0 171 -26 171 -127 c0 -85 -96 -156 -236 -156c-155 0 -218 62 -218 129c0 64 49 84 63 89v3c-30 8 -81 34 -81 99zM275 173c69 0 118 41 118 118c0 75 -49 114 -118 114c-70 0 -125 -39 -125 -114c0 -77 55 -118 125 -118zM134 -108c0 -46 63 -69 142 -69c76 0 157 25 157 82 c0 41 -29 59 -91 59h-128s-80 -4 -80 -72zM291 531c-70 0 -126 49 -135 114c-2 11 2 20 14 20h21c11 0 16 -8 19 -17c11 -38 41 -64 81 -64c37 0 68 29 79 64c4 11 10 17 19 17h23c11 0 16 -9 14 -20c-11 -65 -66 -114 -135 -114z"></glyph><glyph glyph-name="gdotaccent.alt" d="M41 71c0 88 74 112 74 112s-36 37 -36 104c0 104 74 185 194 185h195c14 0 22 -9 22 -22v-15c0 -7 -4 -17 -12 -18l-62 -13s51 -25 51 -117c0 -105 -74 -180 -194 -180c-74 0 -112 29 -112 29s-51 -8 -51 -54c0 -29 20 -48 63 -48h169c98 0 171 -26 171 -127 c0 -85 -96 -156 -236 -156c-155 0 -218 62 -218 129c0 64 49 84 63 89v3c-30 8 -81 34 -81 99zM275 173c69 0 118 41 118 118c0 75 -49 114 -118 114c-70 0 -125 -39 -125 -114c0 -77 55 -118 125 -118zM134 -108c0 -46 63 -69 142 -69c76 0 157 25 157 82 c0 41 -29 59 -91 59h-128s-80 -4 -80 -72zM286 568c-30 0 -54 25 -54 54c0 32 24 56 54 56c31 0 55 -24 55 -56c0 -29 -24 -54 -55 -54z"></glyph><glyph glyph-name="gcommaaccent.alt" d="M41 71c0 88 74 112 74 112s-36 37 -36 104c0 104 74 185 194 185h195c14 0 22 -9 22 -22v-15c0 -7 -4 -17 -12 -18l-62 -13s51 -25 51 -117c0 -105 -74 -180 -194 -180c-74 0 -112 29 -112 29s-51 -8 -51 -54c0 -29 20 -48 63 -48h169c98 0 171 -26 171 -127 c0 -85 -96 -156 -236 -156c-155 0 -218 62 -218 129c0 64 49 84 63 89v3c-30 8 -81 34 -81 99zM275 173c69 0 118 41 118 118c0 75 -49 114 -118 114c-70 0 -125 -39 -125 -114c0 -77 55 -118 125 -118zM134 -108c0 -46 63 -69 142 -69c76 0 157 25 157 82 c0 41 -29 59 -91 59h-128s-80 -4 -80 -72zM343 600c0 -30 -23 -48 -54 -48c-41 0 -69 30 -69 85c0 50 23 89 46 112c5 5 9 4 15 0l16 -12c7 -7 5 -12 0 -17c-16 -13 -29 -39 -29 -65c0 -10 2 -17 5 -22c3 3 13 7 25 7c27 0 45 -17 45 -40z"></glyph><glyph glyph-name="uni2117" unicode="℗" d="M63 350c0 198 161 360 359 360s360 -162 360 -360s-162 -359 -360 -359s-359 161 -359 359zM123 350c0 -165 134 -299 299 -299c166 0 299 134 299 299c0 166 -133 299 -299 299c-165 0 -299 -133 -299 -299zM311 187v328c0 10 8 19 19 19h142c62 0 123 -37 123 -112 s-52 -115 -123 -115h-97v-120c0 -10 -8 -19 -19 -19h-26c-11 0 -19 9 -19 19zM375 365h97c37 0 60 26 60 57c0 34 -23 57 -60 57h-97v-114z"></glyph></font>
</defs>
</svg>
